2 сезон

iTunes

MVO

1

2 сезон

iTunes

iTunes

1 сезон

RePack

30

Новинка

ВАЖНО

ИГРА 18+

pack

RePack

MK11
pack

Легкие деньги

RePack

jed

RePack

fifa19

RePack

RDR2

RePack

NEED FOR SPEED™ PAYBACK

4 сезон

9 сезон

Бесстыжие 9 сезон

Все сериалы

все сериалы на PB.wtf

RePack

FAR CRY 5

Anonymous, добрый вечер, мы не успеваем собрать деньги на оплату серверов за декабрь и январь, помогите нам пожалуйста в это трудное время. В качестве благодарности мы отключим Вам всю рекламу на сайте (укажите свой ник в строку Ваше имя)!

×
  
Magnet ссылка

Шанхайский полдень / Shanghai Noon (Том Дей) [2000 г., Боевик, комедия, приключения, вестерн, BDRip 720p / 60 FPS, Профессиональный (многоголосый)] от R.G. HD-Films pb.wtf

Шанхайский полдень через торрент pb.wtf

Раздают: 4 [ 0 KB/s ]
Размер: 4.83 GB | Добавлен: 2 мес. 7 д. назад | Торрент скачан:50 раз
Скачать  

08-11-2020 11:02 Шанхайский полдень Скачать торрент  

Шанхайский полдень / Shanghai Noon
Год выпуска: 2000
Страна: США, Гонконг
Жанр: Боевик, комедия, приключения, вестерн
Продолжительность: 01:50:16
Перевод: Профессиональный (многоголосый) ( THT )
Субтитры: Russian, English

Режиссер: Том Дей

Бюджет: $55 000 000
Премьера в мире: 19 мая 2000

rating

В ролях: Джеки Чан, Оуэн Уилсон, Люси Лью, Брэндон Мэрилл, Роджер Йуан, Ксандер Беркли, Ю Рон Гуан, Я Хи Куи, Эрик Чен, Джейсон Коннери, Уолтон Гоггинс, Эдриан Дорваль, Рафаэль Баэс, Стэйси Грант, Кейт Лайбен, Генри О, Расселл Баджер, Саймон Бэйкер, Сэм Саймон, Алан С. Петерсон, Рэд Дейли, Ли Джей Бэмберри, Стивен Страхан, Тим Кеттинг, Рик Эш, Валери Планше, Том Хитон, Джеймс Бэйкер, Джим Шилд, Майк Митчелл, Шэйн Уайлер, Бен Сэлтер, Терри Кинг, Мишель Фансетт, Джойс Дулиттл, Рэнди Бёрч, Эндрю Криванек, Кристофер Хант, Джоди Томпсон, Элиза Мёрбах, Кендалл Саундерс

Описание: Когда прекрасную китайскую принцессу похищают, Император отправляет на Дикий Запад троих самых верных и искусных телохранителей. Чон Ванг, естественно, не оказывается в их числе. Но тайными путями ему всё-таки удаётся попасть в воинственную делегацию и оказаться в самом сердце Америки и непредсказуемых событий. Вместе со случайным напарником китайский телохранитель попадает во всевозможные переделки; между делом, он помогает племени Сиу, выкуривает трубку мира и тут же оказывается на тропе войны, по которой пробегают его многочисленные враги.

Качество: BDRip 720p / 60 FPS
Формат: MKV
Видео кодек: H.264
Аудио кодек: AC3
Видео: x264, 1280 x 720 ( 16:9 ), 5894 kbps, 60,000 fps, ( 0.107 bpp)
Аудио#1: Русский, AC-3, 48.0 KHz, 6 ch, 384 Kbps MVO ( THT )
Релиз от: Автор рипа: slaventi-69
x264 [info]: frame I:1777 Avg QP:16.75 size: 79922
x264 [info]: frame P:96366 Avg QP:17.91 size: 25770
x264 [info]: frame B:298460 Avg QP:20.62 size: 7521
x264 [info]: consecutive B-frames: 2.8% 2.5% 9.0% 19.8% 52.8% 13.1%


Общее
Уникальный идентификатор : 230241510982455652945467671019445381273 (0xAD36E6EC5E8250D495EA3AE0F86D6899)
Полное имя : F:\Shanghai.Noon.(2000).BDRip.720p.(60 Fps).mkv
Формат : Matroska
Версия формата : Version 4
Размер файла : 4,83 Гбайт
Продолжительность : 1 ч. 50 м.
Общий поток : 6281 Кбит/сек
Название фильма : Шанхайский полдень / Shanghai Noon (2000) BDRip 720p (60 Fps)
Дата кодирования : UTC 2020-11-02 14:23:41
Программа кодирования : mkvmerge v9.1.0 ('Little Earthquakes') 64bit
Библиотека кодирования : libebml v1.3.3 + libmatroska v1.4.4

Видео
Идентификатор : 1
Формат : AVC
Формат/Информация : Advanced Video Codec
Профиль формата : High@L4.1
Настройки формата : CABAC / 9 Ref Frames
Параметр CABAC формата : Да
Параметр RefFrames формата : 9 кадров
Идентификатор кодека : V_MPEG4/ISO/AVC
Продолжительность : 1 ч. 50 м.
Битрейт : 5894 Кбит/сек
Ширина : 1280 пикселей
Высота : 720 пикселей
Соотношение сторон : 16:9
Режим частоты кадров : Постоянный
Частота кадров : 60,000 кадров/сек
Цветовое пространство : YUV
Субдискретизация насыщенности : 4:2:0
Битовая глубина : 8 бит
Тип развёртки : Прогрессивная
Бит/(Пиксели*Кадры) : 0.107
Размер потока : 4,54 Гбайт (94%)
Заголовок : slaventi-69 ( R.G. HD-Films | 60 fps )
Библиотека кодирования : x264 core 130 r2273 b3065e6
Настройки программы : cabac=1 / ref=9 / deblock=1:0:0 / analyse=0x3:0x113 / me=umh / subme=9 / psy=1 / psy_rd=1.00:0.00 / mixed_ref=1 / me_range=32 / chroma_me=1 / trellis=2 / 8x8dct=1 / cqm=0 / deadzone=21,11 / fast_pskip=1 / chroma_qp_offset=-2 / threads=10 / lookahead_threads=4 / sliced_threads=0 / nr=0 / decimate=1 / interlaced=0 / bluray_compat=0 / constrained_intra=0 / bframes=5 / b_pyramid=2 / b_adapt=2 / b_bias=0 / direct=1 / weightb=1 / open_gop=0 / weightp=2 / keyint=600 / keyint_min=23 / scenecut=40 / intra_refresh=0 / rc=crf / mbtree=0 / crf=17.0 / qcomp=0.60 / qpmin=0 / qpmax=69 / qpstep=4 / ip_ratio=1.40 / pb_ratio=1.30 / aq=1:1.00
Язык : English
Default : Да
Forced : Нет

Аудио
Идентификатор : 2
Формат : AC-3
Формат/Информация : Audio Coding 3
Коммерческое название : Dolby Digital
Идентификатор кодека : A_AC3
Продолжительность : 1 ч. 50 м.
Вид битрейта : Постоянный
Битрейт : 384 Кбит/сек
Каналы : 6 каналов
Channel layout : L R C LFE Ls Rs
Частота : 48,0 КГц
Частота кадров : 31,250 кадров/сек (1536 SPF)
Битовая глубина : 16 бит
Метод сжатия : С потерями
Задержка видео : 500 мс.
Размер потока : 303 Мбайт (6%)
Заголовок : MVO ( THT )
Язык : Russian
ServiceKind/String : Complete Main
Default : Да
Forced : Нет

Текст #1
Идентификатор : 3
Формат : UTF-8
Идентификатор кодека : S_TEXT/UTF8
Идентификатор кодека/Информация : UTF-8 Plain Text
Продолжительность : 1 ч. 44 м.
Битрейт : 58 бит/сек
ElementCount : 825
Размер потока : 44,6 Кбайт (0%)
Заголовок : русский
Язык : Russian
Default : Да
Forced : Нет

Текст #2
Идентификатор : 4
Формат : UTF-8
Идентификатор кодека : S_TEXT/UTF8
Идентификатор кодека/Информация : UTF-8 Plain Text
Продолжительность : 1 ч. 36 м.
Битрейт : 2 бит/сек
ElementCount : 48
Размер потока : 1,90 Кбайт (0%)
Заголовок : английский (на неанглийскую речь)
Default : Нет
Forced : Нет

Просьба к переливающим на другие сайты, в оформлении указывайте пожалуйста авторство группы R.G. HD-Films pb.wtf



Скачать Шанхайский полдень через торрент https://i109.fastpic.ru/big/2019/0220/63/1fe9aeabac5f4a5dbb2ebd75f2970363.png Скачать фильм Шанхайский полдень через торрент бесплантно в хорошем качестве Описание: Когда прекрасную китайскую принцессу похищают, Император отправляет на Дикий Запад троих самых верных и искусных телохранителей. ... 10 10 3
Торрент: Зарегистрирован [2020-11-08 11:02] · скачан: 50 раз
Статус: √ проверено
Размер: 4.83 GB
Как cкачать? Как скачать Шанхайский полдень через торрент | UTorrent

28-11-2019 20:33  

Отключить всю рекламу на сайте

    Дорогой пользователь! Огромная просьба, поблагодарите релизера, оцените раздачу и оставьте свои комментарий, если Вы скачали Шанхайский полдень через торрент бесплатно! Внесите свою лепту в развитие PiratBit!
    Комментировать посты могут только пользователи прошедшие не сложную регистрацию
    Показать сообщения:    

    Шанхайский полдень через торрент
    Скачать бесплатно Шанхайский полдень
    Шанхайский полдень скачать торрент
    Шанхайский полдень смотреть онлайн
    Cкачать фильм Шанхайский полдень бесплатно
    Шанхайский полдень скачать торрент в хорошем качестве
    Шанхайский полдень смотреть онлайн бесплатно в хорошем качестве


    Вы не можете начинать темы
    Вы не можете отвечать на сообщения
    Вы не можете редактировать свои сообщения
    Вы не можете удалять свои сообщения
    Вы не можете голосовать в опросах
    Вы не можете прикреплять файлы к сообщениям
    Вы можете скачивать файлы