2 сезон

iTunes

MVO

1

2 сезон

iTunes

iTunes

1 сезон

RePack

30

Новинка

ВАЖНО

ИГРА 18+

pack

RePack

MK11
pack

Легкие деньги

RePack

jed

RePack

fifa19

RePack

RDR2

RePack

NEED FOR SPEED™ PAYBACK

4 сезон

9 сезон

Бесстыжие 9 сезон

Все сериалы

все сериалы на PB.wtf

RePack

FAR CRY 5

Anonymous, добрый день, мы не успеваем собрать деньги на оплату серверов за декабрь и январь, помогите нам пожалуйста в это трудное время. В качестве благодарности мы отключим Вам всю рекламу на сайте (укажите свой ник в строку Ваше имя)!

×
  
Magnet ссылка

Шанхайские рыцари / Shanghai Knights (Дэвид Добкин) [2003 г., боевик, комедия, приключения, вестерн, BDRip 720p / 60 FPS, Профессиональный (многоголосый)] от R.G. HD-Films pb.wtf

Шанхайские рыцари через торрент pb.wtf

Раздают: 2 [ 0 KB/s ]
Размер: 4.36 GB | Добавлен: 2 мес. 8 д. назад | Торрент скачан:54 раза
Скачать  

08-11-2020 13:06 Шанхайские рыцари Скачать торрент  

Шанхайские рыцари / Shanghai Knights
Год выпуска: 2003
Страна: США, Гонконг
Жанр: боевик, комедия, приключения, вестерн
Продолжительность: 01:54:20
Перевод: Профессиональный (многоголосый)
Субтитры: Russian, English

Режиссер: Дэвид Добкин

Бюджет: $50 000 000
Премьера в мире: 30 января 2003

rating

В ролях: Джеки Чан, Оуэн Уилсон, Фэнн Вонг, Аарон Джонсон, Эйдан Джиллен, Том Фишер, Донни Ен, Оливер Коттон, Элисон Кинг, Константин Грегори, Джонатан Харви, Ричард Хаас

Описание: После приручения Дикого Запада в комедии «Шанхайский полдень», Чон Ванг и Рой О'Баннон - опять в седле, но на сей раз совсем в другом месте - они оказались в цивилизованном Лондоне в продолжении этого фильма, «Шанхайских Рыцарях».
Когда китайский предатель убивает отца Чона и убегает в Англию, Чон и Рой отправляются за ним в Лондон с планами мести. Сестра Чона, Лин, хочет того же, и раскрывает всемирный заговор против королевской семьи, но почти никто не верит ей.
С помощью любезного инспектора Скотланд Ярда и 10-летнего уличного мальчишки, акробатический Чон дает Викторианской Англии хороший пинок, поскольку он одновременно пытается мстить за смерть своего отца и держать склонного к флирту Роя подальше от сестры.


Качество: BDRip 720p / 60 FPS
Формат: MKV
Видео кодек: H.264
Аудио кодек: AC3
Видео: x264, 1280 x 544 ( 2,35:1 ), 5074 kbps, 60,000 fps, ( 0.121 bpp)
Аудио#1: Русский, AC-3, 48.0 KHz, 6 ch, 384 Kbps MVO
Релиз от: Автор рипа: slaventi-69
Общее
Уникальный идентификатор : 212088664268862920234531862870298272936 (0x9F8ECA7AEA7F76B9B08D71F27BC124A8)
Полное имя : F:\Shanghai.Knights.(2003).BDRip.720p.(60 Fps).mkv
Формат : Matroska
Версия формата : Version 4
Размер файла : 4,36 Гбайт
Продолжительность : 1 ч. 54 м.
Общий поток : 5462 Кбит/сек
Название фильма : Шанхайские рыцари / Shanghai Knights (2003) BDRip 720p (60 Fps)
Дата кодирования : UTC 2020-11-04 17:00:40
Программа кодирования : mkvmerge v9.1.0 ('Little Earthquakes') 64bit
Библиотека кодирования : libebml v1.3.3 + libmatroska v1.4.4

Видео
Идентификатор : 1
Формат : AVC
Формат/Информация : Advanced Video Codec
Профиль формата : High@L4.1
Настройки формата : CABAC / 9 Ref Frames
Параметр CABAC формата : Да
Параметр RefFrames формата : 9 кадров
Идентификатор кодека : V_MPEG4/ISO/AVC
Продолжительность : 1 ч. 54 м.
Битрейт : 5074 Кбит/сек
Ширина : 1280 пикселей
Высота : 544 пикселя
Соотношение сторон : 2,35:1
Режим частоты кадров : Постоянный
Частота кадров : 60,000 кадров/сек
Цветовое пространство : YUV
Субдискретизация насыщенности : 4:2:0
Битовая глубина : 8 бит
Тип развёртки : Прогрессивная
Бит/(Пиксели*Кадры) : 0.121
Размер потока : 4,05 Гбайт (93%)
Заголовок : slaventi-69 ( R.G. HD-Films | 60 fps )
Библиотека кодирования : x264 core 130 r2273 b3065e6
Настройки программы : cabac=1 / ref=9 / deblock=1:-1:-1 / analyse=0x3:0x113 / me=umh / subme=9 / psy=1 / psy_rd=1.00:0.00 / mixed_ref=1 / me_range=32 / chroma_me=1 / trellis=2 / 8x8dct=1 / cqm=0 / deadzone=21,11 / fast_pskip=1 / chroma_qp_offset=-2 / threads=10 / lookahead_threads=4 / sliced_threads=0 / nr=0 / decimate=1 / interlaced=0 / bluray_compat=0 / constrained_intra=0 / bframes=5 / b_pyramid=2 / b_adapt=2 / b_bias=0 / direct=1 / weightb=1 / open_gop=0 / weightp=2 / keyint=600 / keyint_min=23 / scenecut=40 / intra_refresh=0 / rc=crf / mbtree=0 / crf=18.0 / qcomp=0.60 / qpmin=0 / qpmax=69 / qpstep=4 / ip_ratio=1.40 / pb_ratio=1.30 / aq=1:1.00
Язык : English
Default : Да
Forced : Нет

Аудио
Идентификатор : 2
Формат : AC-3
Формат/Информация : Audio Coding 3
Коммерческое название : Dolby Digital
Идентификатор кодека : A_AC3
Продолжительность : 1 ч. 54 м.
Вид битрейта : Постоянный
Битрейт : 384 Кбит/сек
Каналы : 6 каналов
Channel layout : L R C LFE Ls Rs
Частота : 48,0 КГц
Частота кадров : 31,250 кадров/сек (1536 SPF)
Битовая глубина : 16 бит
Метод сжатия : С потерями
Размер потока : 314 Мбайт (7%)
Заголовок : MVO
Язык : Russian
ServiceKind/String : Complete Main
Default : Да
Forced : Нет

Текст #1
Идентификатор : 3
Формат : UTF-8
Идентификатор кодека : S_TEXT/UTF8
Идентификатор кодека/Информация : UTF-8 Plain Text
Продолжительность : 1 ч. 48 м.
Битрейт : 74 бит/сек
ElementCount : 864
Размер потока : 59,6 Кбайт (0%)
Язык : Russian
Default : Нет
Forced : Нет

Текст #2
Идентификатор : 4
Формат : UTF-8
Идентификатор кодека : S_TEXT/UTF8
Идентификатор кодека/Информация : UTF-8 Plain Text
Продолжительность : 1 ч. 44 м.
Битрейт : 55 бит/сек
ElementCount : 1524
Размер потока : 43,0 Кбайт (0%)
Язык : English
Default : Нет
Forced : Нет

Просьба к переливающим на другие сайты, в оформлении указывайте пожалуйста авторство группы R.G. HD-Films pb.wtf



Скачать Шанхайские рыцари через торрент http://i57.fastpic.ru/big/2013/0926/3e/d14e424d0157999ae9a5f9fd75339c3e.png Скачать фильм Шанхайские рыцари через торрент бесплантно в хорошем качестве Описание: После приручения Дикого Запада в комедии «Шанхайский полдень», Чон Ванг и Рой О'Баннон - опять в седле, но на сей раз совсем в ... 10 10 4
Торрент: Зарегистрирован [2020-11-08 13:06] · скачан: 54 раз
Статус: √ проверено
Размер: 4.36 GB
Как cкачать? Как скачать Шанхайские рыцари через торрент | UTorrent

28-11-2019 20:33  

Отключить всю рекламу на сайте

08-11-2020 13:35 Шанхайские рыцари Скачать торрент  

Огромное спасибо автору!!! Фильм детства ))pb.wtf



10-11-2020 17:19 Шанхайские рыцари Скачать торрент  

Смотрите в удовольствие.pb.wtf



    Дорогой пользователь! Огромная просьба, поблагодарите релизера, оцените раздачу и оставьте свои комментарий, если Вы скачали Шанхайские рыцари через торрент бесплатно! Внесите свою лепту в развитие PiratBit!
    Комментировать посты могут только пользователи прошедшие не сложную регистрацию
    Показать сообщения:    

    Шанхайские рыцари через торрент
    Скачать бесплатно Шанхайские рыцари
    Шанхайские рыцари скачать торрент
    Шанхайские рыцари смотреть онлайн
    Cкачать фильм Шанхайские рыцари бесплатно
    Шанхайские рыцари скачать торрент в хорошем качестве
    Шанхайские рыцари смотреть онлайн бесплатно в хорошем качестве


    Вы не можете начинать темы
    Вы не можете отвечать на сообщения
    Вы не можете редактировать свои сообщения
    Вы не можете удалять свои сообщения
    Вы не можете голосовать в опросах
    Вы не можете прикреплять файлы к сообщениям
    Вы можете скачивать файлы