2 сезон

iTunes

WEBRip

1

2 сезон

iTunes

1 сезон

1 сезон

RePack

30

Новинка

ВАЖНО

ИГРА 18+

pack

RePack

MK11
pack

Легкие деньги

RePack

jed

RePack

fifa19

RePack

RDR2

RePack

NEED FOR SPEED™ PAYBACK

4 сезон

9 сезон

Бесстыжие 9 сезон

Все сериалы

все сериалы на PB.wtf

RePack

FAR CRY 5

Anonymous, добрый вечер, мы не успеваем собрать деньги на оплату серверов за февраль, помогите нам пожалуйста в это трудное время. В качестве благодарности мы отключим Вам всю рекламу на сайте (укажите свой ник в строку Ваше имя)!

×
  
Magnet ссылка

Метод / Сезон: 2 / Серии: 1-14 из 16 (Александр Войтинский) [2020, Триллер, детектив, драма, HDTVRip-AVC] pb.wtf

Метод через торрент pb.wtf

Раздают: 1 [ 340 KB/s ] Качают: 7 [ 0 KB/s ]
Размер: 10.38 GB | Добавлен: 7 д. назад | Торрент скачан:6 раз
Скачать  

08-11-2020 18:08 Метод Скачать торрент  

Метод 2
Год выпуска: 2020
Страна: Россия
Производство: Кинокомпания "Среда"
Жанр: Триллер, детектив
Продолжительность: ~ 00:45:00
Перевод: Не требуется
Субтитры: отсутствуют

Режиссер: Александр Войтинский

rating

В ролях: Константин Хабенский, Паулина Андреева, Александр Петров (III), Виталий Кищенко, Евгения Симонова, Никита Тарасов, Сергей Гармаш, Макар Запорожский, Егор Корешков, Сергей Сосновский, Анна Глаубэ, Сергей Ракша, Пётр Нестеров, Наталья Земцова, Руслан Щедрин, Дмитрий Радонов, Анастасия Привалова, Николай Ширяев, Полина Лунегова, Алёна Фалалеева, Владимир Андриянов, Кирилл Полухин, Сергей Гурьев, Елена Николаева (II), Сергей Лобанов, Светлана Устинова, Даниил Воробьёв, Роман Маякин, Юлия Хлынина, Александр Наумов, Артур Сопельник, Павел Чинарёв, Вильма Кутавичюте, Энтони Бэшоу

Описание: После смерти Меглина прошел год, но Есеня не может забыть о том, что произошло. Не может и не хочет. Призраки прошлого снова и снова возвращают её в тот день, когда она потеряла Меглина. Есеня пытается начать жить заново — рядом с ней муж, подрастает дочь, но всё, о чем она мечтает — это поскорее вернуться к работе. Такой шанс представляется, когда в городе происходит череда таинственных убийств. Есеня возвращается на службу и в первый же день снова теряет близкого человека, своего друга и напарника. Чтобы найти убийцу, ей необходим метод. Чтобы найти метод, ей необходимо воскресить в памяти все то, чему её учил Меглин. Поиски приводят Есеню к разгадке тайн прошлого. Героине, которая еще не успела оправиться от одного кошмара, приходится столкнуться с новым. Но что, если это её убьёт?

Качество: HDTVRip-AVC
Формат: MKV

Видео: MPEG-4 AVC, ~ 2000 Кбит/с, 1024x576, 25 кадр/с
Аудио: 48.0 kHz, AC3 Dolby Digital, 2/0 (L,R) ch, ~ 192 kbps
скриншот  скриншот  скриншот  скриншот  

General
Unique ID : 209768504391181421537330890531064913519 (0x9DCFF1C42C95EC85B14EB4B7BE8E1E6F)
Complete name : F:\Метод.S02.(2020).HDTVRip.(AVC).Files-x\01.Metod.S02.(2020).HDTVRip.(AVC).by.Серый1779.Files-x.mkv
Format : Matroska
Format version : Version 2
File size : 721 MiB
Duration : 45 min 59 s
Overall bit rate : 2 193 kb/s
Encoded date : UTC 2020-11-08 17:44:42
Writing application : mkvmerge v7.8.0 ('River Man') 32bit built on Apr 3 2015 12:11:22
Writing library : libebml v1.3.1 + libmatroska v1.4.2

Video
ID : 1
Format : AVC
Format/Info : Advanced Video Codec
Format profile : High@L4.1
Format settings : CABAC / 9 Ref Frames
Format settings, CABAC : Yes
Format settings, RefFrames : 9 frames
Codec ID : V_MPEG4/ISO/AVC
Duration : 45 min 59 s
Bit rate : 2 000 kb/s
Width : 1 024 pixels
Height : 576 pixels
Display aspect ratio : 16:9
Frame rate mode : Constant
Frame rate : 25.000 FPS
Color space : YUV
Chroma subsampling : 4:2:0
Bit depth : 8 bits
Scan type : Progressive
Bits/(Pixel*Frame) : 0.136
Stream size : 644 MiB (89%)
Writing library : x264 core 146 r2538 121396c
Encoding settings : cabac=1 / ref=9 / deblock=1:-2:-1 / analyse=0x3:0x133 / me=umh / subme=9 / psy=1 / psy_rd=1.00:0.15 / mixed_ref=1 / me_range=32 / chroma_me=1 / trellis=2 / 8x8dct=1 / cqm=0 / deadzone=21,11 / fast_pskip=0 / chroma_qp_offset=-3 / threads=18 / lookahead_threads=3 / sliced_threads=0 / nr=0 / decimate=1 / interlaced=0 / bluray_compat=0 / constrained_intra=0 / bframes=9 / b_pyramid=2 / b_adapt=2 / b_bias=0 / direct=1 / weightb=1 / open_gop=0 / weightp=2 / keyint=250 / keyint_min=25 / scenecut=40 / intra_refresh=0 / rc=2pass / mbtree=0 / bitrate=2000 / ratetol=1.0 / qcomp=0.60 / qpmin=0 / qpmax=69 / qpstep=4 / cplxblur=20.0 / qblur=0.5 / ip_ratio=1.40 / pb_ratio=1.30 / aq=2:1.00
Default : Yes
Forced : No
Color range : Limited
Color primaries : BT.709
Transfer characteristics : BT.709
Matrix coefficients : BT.709

Audio
ID : 2
Format : AC-3
Format/Info : Audio Coding 3
Format settings, Endianness : Big
Codec ID : A_AC3
Duration : 45 min 59 s
Bit rate mode : Constant
Bit rate : 192 kb/s
Channel(s) : 2 channels
Channel positions : Front: L R
Sampling rate : 48.0 kHz
Frame rate : 31.250 FPS (1536 SPF)
Bit depth : 16 bits
Compression mode : Lossy
Stream size : 63.2 MiB (9%)
Service kind : Complete Main
Default : Yes
Forced : No

Когда раздача ведётся путём добавления новых серий, при каждом добавлении создётся новый торрент. Чтобы начать докачку новой серии, пользователям необходимо сделать следующее:
(1) остановить скачивание,
(2) удалить старый торрент у себя из клиента (старые серии удалять не надо),
(3) скачать новый торрент и запустить его у себя в клиенте вместо старого, при этом указать клиенту путь в старую папку, куда и должно происходить скачивание новых серий.
Ваш клиент при этом должен произвести хеширование (проверку) старой папки (если не производит сам - помогите ему сделать это), и будет докачивать только те серии, которых у вас ещё нет. Старые серии при этом не удаляются, а продолжают раздаваться!
Eсли вы уже удалили старые серии, то предотвратить повторную закачку старых серий можно, отжав галочку в соответсвующих местах при запуске нового торрента. По возможности, желательно не удалять старые серии как можно дольше, чтобы релизёр не столько продолжал раздавать старые серии, а смог сконцентрироваться на новых.

pb.wtf



Скачать Метод через торрент http://c.radikal.ru/c26/2011/10/5e3e10487a76.jpg Скачать фильм Метод через торрент бесплантно в хорошем качестве Описание: После смерти Меглина прошел год, но Есеня не может забыть о том, что произошло. Не может и не хочет. Призраки прошлого снова и ... 9.5 10 12
Торрент: Зарегистрирован [2021-03-01 15:37] · скачан: 6 раз
Статус: √ проверено
Размер: 10.38 GB
Как cкачать? Как скачать Метод через торрент | UTorrent

% Раздел Тема Автор DL S | L
Наши сериалы [ 17.71 GB ] Метод / Сезон: 2 / Серии: 1-14 из 16 [2020 HDTVRip 720p] bober100 Скачать
3 | 10
Наши сериалы [ 26.04 GB ] Метод / Сезон: 2 / Серии: 1-14 из 16 [2020 WEB-DL 1080p ] bober100 Скачать
12 | 20
Наши сериалы [ 9.03 GB ] Метод / Сезон: 2 / Серии: 1-14 из 16 [2020 SATRip] bober100 Скачать
6 | 19
Наши сериалы [ 25.3 GB ] Метод / Сезон: 2 / Серии: 1-14 из 16 [2020 HDTV 1080i] bober100 Скачать
3 | 2
Наши сериалы [ 8.64 GB ] Метод / Сезон: 2 / Серии: 1-14 из 16 [2020 HDTVRip] bober100 Скачать
7 | 5


Последний раз редактировалось: bober100 (2021-03-01 15:37), всего редактировалось 3 раз(а)

28-11-2019 20:33  

Отключить всю рекламу на сайте

03-01-2021 10:52 Метод Скачать торрент  

адская лажа, по сравнению с первой частью.pb.wtf



05-01-2021 21:22 Метод Скачать торрент  

Неокончена 8 серия как будто, тупо кончилось.pb.wtf



17-01-2021 21:37 Метод Скачать торрент  

Ну я бы не сказал,что бы так уж и лажа,после 9 серии думаю будет по живее,а так всё норм!!!) pb.wtf



    Дорогой пользователь! Огромная просьба, поблагодарите релизера, оцените раздачу и оставьте свои комментарий, если Вы скачали Метод через торрент бесплатно! Внесите свою лепту в развитие PiratBit!
    Комментировать посты могут только пользователи прошедшие не сложную регистрацию
    Показать сообщения:    

    Метод через торрент
    Скачать бесплатно Метод
    Метод скачать торрент
    Метод смотреть онлайн
    Cкачать фильм Метод бесплатно
    Метод скачать торрент в хорошем качестве
    Метод смотреть онлайн бесплатно в хорошем качестве


    Вы не можете начинать темы
    Вы не можете отвечать на сообщения
    Вы не можете редактировать свои сообщения
    Вы не можете удалять свои сообщения
    Вы не можете голосовать в опросах
    Вы не можете прикреплять файлы к сообщениям
    Вы можете скачивать файлы