Ссылка на приватное зеркало нашего сайта всего за 1$. Внимание количество ограничено!!!

2 сезон

iTunes

1 сезон

1

2 сезон

2 сезон

iTunes

1 сезон

RePack

30

Ultimate

ВАЖНО

ИГРА 18+

pack

RePack

MK11
pack

Забери бонус

RePack

jed

!!Акция!!

Alien_Rage

RePack

fifa19

RePack

Assassins Creed: Odyssey

RePack

NEED FOR SPEED™ PAYBACK

4 сезон

9 сезон

Бесстыжие 9 сезон

Все сериалы

все сериалы на PB.wtf

RePack

FAR CRY 5
  

Jeffrey Lloyd and Dakota Payne Cheat On Their Boyfriends [2018 г., Anal Sex, Bareback, Blowjob, Cumshots, Masturbation, Rimming, Tattoos, Toys, HDTV 1080p] pb.wtf

Jeffrey Lloyd and Dakota Payne Cheat On Their Boyfriends через торрент pb.wtf

Размер: 1.29 GB | Добавлен: 21 д. назад | Торрент скачан:20 раз
Скачать  

09-11-2020 06:56 Jeffrey Lloyd and Dakota Payne Cheat On Their Boyfriends Скачать торрент  

Jeffrey Lloyd and Dakota Payne Cheat On Their Boyfriends
Год выпуска: 2018
Страна: LucasEntertainment.com
Жанр: Anal Sex, Bareback, Blowjob, Cumshots, Masturbation, Rimming, Tattoos, Toys
Продолжительность: 00:22:44
Перевод: Оригинальный

В ролях: Jeffrey Lloyd, Dakota Payne

Описание: Jeffrey Lloyd and Dakota Payne have fidelity issues -- there''s no way around it. They keep their private relationships going, but they indulge their selfish sexual fantasies with each other and leave their respective partners home to be cuckolds. Here Jeffrey and Dakota meet up to have gay bareback sex together, and their boyfriends are none the wiser.

Доп. информация: официальный релиз ролика - 24.12.2018

Тип HD видео: 1080p
Формат: MP4
Видео кодек: AVC
Аудио кодек: AAC
Видео: AVC, 1920x1080 (16:9), 23.976 fps, 8 000 Kbps
Аудио#1: AAC LC, 48.0 KHz, 2 ch, 192 Kbps
скриншот  
скриншот  
скриншот  скриншот  

Общее
Полное имя : D:\torrent\novay zagruzka(dok)\2018-12-24 Jeffrey Lloyd and Dakota Payne.mp4
Формат : MPEG-4
Профиль формата : Base Media / Version 2
Идентификатор кодека : mp42 (mp42/mp41)
Размер файла : 1,29 Гбайт
Продолжительность : 22 м. 44 с.
Режим общего битрейта : Переменный
Общий поток : 8 116 Кбит/сек
Дата кодирования : UTC 2018-12-14 01:19:16
Дата пометки : UTC 2018-12-14 01:22:58
TIM : 00:00:00:00
TSC : 24000
TSZ : 1001

Видео
Идентификатор : 1
Формат : AVC
Формат/Информация : Advanced Video Codec
Профиль формата : Main@L5.1
Настройки формата : CABAC / 3 Ref Frames
Параметр CABAC формата : Да
Параметр RefFrames формата : 3 кадра
Идентификатор кодека : avc1
Идентификатор кодека/Информация : Advanced Video Coding
Продолжительность : 22 м. 44 с.
Вид битрейта : Постоянный
Битрейт : 8 000 Кбит/сек
Ширина : 1 920 пикселей
Высота : 1 080 пикселей
Соотношение сторон : 16:9
Режим частоты кадров : Переменный
Частота кадров : 23,976 (24000/1001) кадра/сек
Минимальная частота кадров : 23,976 кадра/сек
Максимальная частота кадров : 24,000 кадра/сек
Стандарт вещания : NTSC
Цветовое пространство : YUV
Субдискретизация насыщенности : 4:2:0
Битовая глубина : 8 бит
Тип развёртки : Прогрессивная
Бит/(Пиксели*Кадры) : 0.161
Размер потока : 1,26 Гбайт (98%)
Язык : English
Дата кодирования : UTC 2018-12-14 01:19:16
Дата пометки : UTC 2018-12-14 01:19:16
Цветовой диапазон : Limited
Codec configuration box : avcC

Аудио
Идентификатор : 2
Формат : AAC LC
Формат/Информация : Advanced Audio Codec Low Complexity
Идентификатор кодека : mp4a-40-2
Продолжительность : 22 м. 44 с.
Вид битрейта : Переменный
Битрейт : 192 Кбит/сек
Максимальный битрейт : 308 Кбит/сек
Каналы : 2 канала
Channel layout : L R
Частота : 48,0 КГц
Частота кадров : 46,875 кадров/сек (1024 SPF)
Метод сжатия : С потерями
Размер потока : 30,8 Мбайт (2%)
Язык : English
Дата кодирования : UTC 2018-12-14 01:19:16
Дата пометки : UTC 2018-12-14 01:19:16

pb.wtf



pack Скачать Jeffrey Lloyd and Dakota Payne Cheat On Their Boyfriends через торрент https://c.radikal.ru/c11/2011/69/3986a862b24b.jpg Скачать фильм Jeffrey Lloyd and Dakota Payne Cheat On Their Boyfriends [2018 г., Anal Sex, Bareback, Blowjob, Cumshots, Masturbation, Rimming, Tattoos, Toys, HDTV 1080p]через торрент бесплантно в хорошем качестве Описание: Jeffrey Lloyd and Dakota Payne have fidelity issues -- there''s no way around it. They keep their private relationships going, ... 5 10 1
Торрент: Зарегистрирован [2020-11-09 06:56] · скачан: 20 раз
Статус: √ проверено
Размер: 1.29 GB
Как cкачать? Как скачать Jeffrey Lloyd and Dakota Payne Cheat On Their Boyfriends через торрент | qTorrent

28-11-2019 20:33  

Отключить всю рекламу на сайте

    Дорогой пользователь! Огромная просьба, поблагодарите релизера, оцените раздачу и оставьте свои комментарий, если Вы скачали Jeffrey Lloyd and Dakota Payne Cheat On Their Boyfriends через торрент бесплатно! Внесите свою лепту в развитие PiratBit!
    Комментировать посты могут только пользователи прошедшие не сложную регистрацию
    Показать сообщения:    

    Jeffrey Lloyd and Dakota Payne Cheat On Their Boyfriends через торрент
    Скачать бесплатно Jeffrey Lloyd and Dakota Payne Cheat On Their Boyfriends
    Jeffrey Lloyd and Dakota Payne Cheat On Their Boyfriends скачать торрент
    Jeffrey Lloyd and Dakota Payne Cheat On Their Boyfriends смотреть онлайн
    Cкачать фильм Jeffrey Lloyd and Dakota Payne Cheat On Their Boyfriends бесплатно
    Jeffrey Lloyd and Dakota Payne Cheat On Their Boyfriends скачать торрент в хорошем качестве
    Jeffrey Lloyd and Dakota Payne Cheat On Their Boyfriends смотреть онлайн бесплатно в хорошем качестве


    Вы не можете начинать темы
    Вы не можете отвечать на сообщения
    Вы не можете редактировать свои сообщения
    Вы не можете удалять свои сообщения
    Вы не можете голосовать в опросах
    Вы не можете прикреплять файлы к сообщениям
    Вы можете скачивать файлы