Всегда рабочее зеркало без VPN и Proxy просто перед .vidak.icu напиши любое слово или цифру, Пример http://p9od.vidak.icu

MVO

2 сезон

1 сезон

1

1 сезон

iTunes

2 сезон

13

1 сезон

Deluxe

pack

Рекомендуем

Пиратка

30

ВАЖНО

RePack

MK11

RePack

jed

RePack

fifa19

RePack

RDR2

RePack

NEED FOR SPEED™ PAYBACK

Кинопоиск HD

6 сезон

 Острые козырьки 6 сезон

Все сериалы

все сериалы на PB.wtf

RePack

FAR CRY 5

Anonymous, нам критически не хватает 5601 руб. на оплату серверов и переферии за Апрель, помоги нам пожалуйста, вся надежда только на тебя. В благодарность мы отключим тебе всю рекламу на сайте!

×
  
Magnet ссылка

Киллер по вызову / Прушный денек / Lucky Day (Роджер Эвери) [2019, Боевик, триллер, криминал, BDRip 720p] DUB [iTunes] pb.wtf

Киллер по вызову через торрент pb.wtf

Размер: 4.04 GB | Добавлен: 1 год 6 мес. назад | Торрент скачан:160 раз
Смотреть онлайн Киллер по вызову | Скачать    Ребята, помогите собрать деньги на оплату серверов!!!

10-11-2020 05:46 Киллер по вызову Скачать торрент  

Киллер по вызову | Прушный денек | Lucky Day
Год выпуска: 2019
Страна: Франция, Канада
Студия: Avary, Davis-Films, Don Carmody Productions
Жанр: Боевик, триллер, криминал
Продолжительность: 01:39:15
Перевод: Дублированный | iTunes(со вставками авторского перевода Михаила Чадова)
Субтитры: Английские

Режиссер: Роджер Эвери

rating

В ролях: Люк Брейси, Нина Добрев, Криспин Гловер, Элла Райан Куинн, Кле Беннетт, Клифтон Коллинз мл., Дэвид Хьюлетт, Надя Фарес, Томер Сислей, Марк Дакаскос

Описание: В первый же день после освобождения из тюрьмы взломщик сейфов Ред и его подруга становятся мишенью киллера. Сея вокруг себя хаос, киллер шутит с акцентом, что мстит за убитую собаку. Не спеша уничтожать жертву, он явно ведет свою игру, истинной целью которой может быть вовсе не Ред.

Качество: BDRip 720p
Формат: MKV

Видео: MPEG-4 AVC, 1280x534, 4797 Kbit/s, 23.976 fps
Аудио#1: 48 kHz, AC3, 5.1, 384 Kbps | iTunes | RUS |
Аудио#2: 48 kHz, AC3, 5.1, 640 Kbps | Оригинал | ENG |
скриншот  скриншот  скриншот  скриншот  скриншот  

General
Unique ID : 142815393513385329647018952836114004565 (0x6B713E89B413C5AD9338E0967A6BBA55)
Complete name : D:Video111Lucky.Day.2019.BDRip.720p.seleZen.mkv
Format : Matroska
Format version : Version 4
File size : 4.04 GiB
Duration : 1 h 39 min
Overall bit rate : 5 824 kb/s
Movie name : Lucky Day 2019 from селезень
Encoded date : UTC 2020-11-10 01:01:07
Writing application : mkvmerge v40.0.0 ('Old Town Road + Pony') 64-bit
Writing library : libebml v1.3.9 + libmatroska v1.5.2

Video
ID : 1
Format : AVC
Format/Info : Advanced Video Codec
Format profile : High@L4.1
Format settings : CABAC / 12 Ref Frames
Format settings, CABAC : Yes
Format settings, Reference : 12 frames
Codec ID : V_MPEG4/ISO/AVC
Duration : 1 h 39 min
Bit rate : 4 797 kb/s
Width : 1 280 pixels
Height : 534 pixels
Display aspect ratio : 2.40:1
Frame rate mode : Constant
Frame rate : 23.976 (24000/1001) FPS
Color space : YUV
Chroma subsampling : 4:2:0
Bit depth : 8 bits
Scan type : Progressive
Bits/(Pixel*Frame) : 0.293
Stream size : 3.33 GiB (82%)
Title : Gyroscope
Writing library : x264 core 158 r2984+49 6932f4a t_mod_New [0-bit@all X86_64]
Encoding settings : cabac=1 / ref=12 / deblock=1:-3:-3 / analyse=0x3:0x113 / me=umh / subme=10 / psy=1 / fade_compensate=0.00 / psy_rd=1.00:0.00 / mixed_ref=1 / me_range=32 / chroma_me=1 / trellis=2 / 8x8dct=1 / cqm=0 / deadzone=21,11 / fast_pskip=0 / chroma_qp_offset=-2 / threads=9 / lookahead_threads=2 / sliced_threads=0 / nr=0 / decimate=0 / interlaced=0 / bluray_compat=0 / constrained_intra=0 / fgo=0 / bframes=16 / b_pyramid=2 / b_adapt=2 / b_bias=0 / direct=3 / weightb=1 / open_gop=0 / weightp=2 / keyint=250 / keyint_min=24 / scenecut=40 / intra_refresh=0 / rc_lookahead=75 / rc=crf / mbtree=0 / crf=14.8000 / qcomp=0.65 / qpmin=0:0:0 / qpmax=69:69:69 / qpstep=4 / vbv_maxrate=62500 / vbv_bufsize=78125 / crf_max=0.0 / nal_hrd=none / filler=0 / ip_ratio=1.40 / pb_ratio=1.30 / aq=3:0.75 / aq-sensitivity=10.00 / aq-factor=1.00:1.00:1.00 / aq2=0 / aq3=0 / zones=30,505,crf=11.0/29207,29589,crf=11.0
Language : English
Default : Yes
Forced : No

Audio #1
ID : 2
Format : AC-3
Format/Info : Audio Coding 3
Commercial name : Dolby Digital
Codec ID : A_AC3
Duration : 1 h 39 min
Bit rate mode : Constant
Bit rate : 384 kb/s
Channel(s) : 6 channels
Channel layout : L R C LFE Ls Rs
Sampling rate : 48.0 kHz
Frame rate : 31.250 FPS (1536 SPF)
Compression mode : Lossy
Stream size : 273 MiB (7%)
Title : iTunes
Language : Russian
Service kind : Complete Main
Default : Yes
Forced : Yes

Audio #2
ID : 3
Format : AC-3
Format/Info : Audio Coding 3
Commercial name : Dolby Digital
Codec ID : A_AC3
Duration : 1 h 39 min
Bit rate mode : Constant
Bit rate : 640 kb/s
Channel(s) : 6 channels
Channel layout : L R C LFE Ls Rs
Sampling rate : 48.0 kHz
Frame rate : 31.250 FPS (1536 SPF)
Compression mode : Lossy
Stream size : 454 MiB (11%)
Title : Original
Language : English
Service kind : Complete Main
Default : No
Forced : No

Text #1
ID : 4
Format : UTF-8
Codec ID : S_TEXT/UTF8
Codec ID/Info : UTF-8 Plain Text
Duration : 1 h 37 min
Bit rate : 58 b/s
Count of elements : 1332
Stream size : 41.5 KiB (0%)
Title : Full
Language : English
Default : No
Forced : No

Text #2
ID : 5
Format : UTF-8
Codec ID : S_TEXT/UTF8
Codec ID/Info : UTF-8 Plain Text
Duration : 1 h 37 min
Bit rate : 62 b/s
Count of elements : 1458
Stream size : 44.7 KiB (0%)
Title : SDH
Language : English
Default : No
Forced : No

Menu
00:00:00.000 : en:Chapter 01
00:06:02.070 : en:Chapter 02
00:10:49.649 : en:Chapter 03
00:18:16.846 : en:Chapter 04
00:23:41.837 : en:Chapter 05
00:30:44.551 : en:Chapter 06
00:37:38.131 : en:Chapter 07
00:43:59.554 : en:Chapter 08
00:48:35.412 : en:Chapter 09
00:53:35.337 : en:Chapter 10
01:00:05.519 : en:Chapter 11
01:07:10.443 : en:Chapter 12
01:11:08.222 : en:Chapter 13
01:17:25.140 : en:Chapter 14
01:24:48.583 : en:Chapter 15
01:29:50.594 : en:Chapter 16

pb.wtf
Kbober100 писал(а):

***В фильме присутствуют участки с французской речью (около пяти минут). Данные участки заменены участками, с авторского перевода Михаила Чадова.



Скачать Киллер по вызову через торрент https://d.radikal.ru/d06/2011/f1/c67ed3174964.jpg Скачать, смотреть онлайн Киллер по вызову бесплантно в хорошем качестве Описание: В первый же день после освобождения из тюрьмы взломщик сейфов Ред и его подруга становятся мишенью киллера. Сея вокруг себя хаос, ... 10 10 2
Торрент: Зарегистрирован [2020-11-11 05:37] · скачан: 160 раз
Статус: √ проверено
Размер: 4.04 GB
Как cкачать? Как скачать Киллер по вызову через торрент | UTorrent

% Раздел Тема Автор DL S | L
Фильмы 2019-2020 [DVDrip, WEB-DLRip, HDrip] (DUB, MVO) [ 747 MB ] Киллер по вызову / Прушный денек / Lucky Day [2019 HDRip] bober100 Скачать
1 | 0
Фильмы 2019-2020 [DVDrip, WEB-DLRip, HDrip] (DUB, MVO) [ 1.41 GB ] Киллер по вызову / Прушный денек / Lucky Day [2019 BDRip-AVC] bober100 Скачать
2 | 0
Фильмы 2019-2020 [DVDrip, WEB-DLRip, HDrip] (DUB, MVO) [ 1.46 GB ] Киллер по вызову / Прушный денек / Lucky Day [2019 BDRip] bober100 Скачать
1 | 0
Фильмы (Blu-ray, BD-Remux, HDDVD) [ 19.3 GB ] Киллер по вызову / Прушный денек / Lucky Day [2019 BD Remux 1080p] bober100 Скачать
1 | 0
Фильмы [HD 720p, 1080p] (Хороший звук DUB, MVO) [ 10.87 GB ] Киллер по вызову / Прушный денек / Lucky Day [2019 BDRip 1080p] bober100 Скачать
2 | 0

28-11-2019 20:33  

Отключить всю рекламу на сайте

    Дорогой пользователь! Огромная просьба, поблагодарите релизера, оцените раздачу и оставьте свои комментарий, если Вы скачали Киллер по вызову через торрент бесплатно!
    Комментировать посты могут только пользователи прошедшие не сложную регистрацию
    Показать сообщения:    

    Киллер по вызову через торрент
    Скачать бесплатно Киллер по вызову
    Киллер по вызову скачать торрент
    Киллер по вызову смотреть онлайн
    Cкачать фильм Киллер по вызову бесплатно
    Киллер по вызову скачать торрент в хорошем качестве
    Киллер по вызову смотреть онлайн бесплатно в хорошем качестве


    Вы не можете начинать темы
    Вы не можете отвечать на сообщения
    Вы не можете редактировать свои сообщения
    Вы не можете удалять свои сообщения
    Вы не можете голосовать в опросах
    Вы не можете прикреплять файлы к сообщениям
    Вы можете скачивать файлы