Ссылка на приватное зеркало нашего сайта всего за 1$. Внимание количество ограничено!!!

2 сезон

iTunes

1 сезон

1

2 сезон

2 сезон

iTunes

1 сезон

RePack

30

Ultimate

ВАЖНО

ИГРА 18+

pack

RePack

MK11
pack

Забери бонус

RePack

jed

!!Акция!!

Alien_Rage

RePack

fifa19

RePack

Assassins Creed: Odyssey

RePack

NEED FOR SPEED™ PAYBACK

4 сезон

9 сезон

Бесстыжие 9 сезон

Все сериалы

все сериалы на PB.wtf

RePack

FAR CRY 5
  

Эффект Манделы / The Mandela Effect (Дэвид Гай Леви) [2019, фантастика, триллер, драма, WEB-DL 1080p] [Dub] [iTunes] pb.wtf

Эффект Манделы через торрент pb.wtf

Раздают: 10 [ 0 KB/s ]
Размер: 5.24 GB | Добавлен: 15 д. назад | Торрент скачан:127 раз
Скачать  

10-11-2020 11:11 Эффект Манделы Скачать торрент  

Эффект Манделы / The Mandela Effect

Страна: США
Жанр: фантастика, триллер, драма
Год выпуска: 2019
Продолжительность: 01:19:54
Перевод: Профессиональный (дублированный) | iTunes
Субтитры: английские

Режиссер: Дэвид Гай Леви / David Guy Levy
В ролях:
Чарли Хофхаймер, Алекса Палладино, Робин Лорд Тейлор, Кларк Питерс, Мадлен Макгроу, Тим Рэнсом, Птолеми Слокам, Верни Уотсон, Элена Кэмпбелл-Мартинес, Steven Daniel Brun
Описание: В семье талантливого программиста произошла трагедия. После этого в его жизни стали происходить странные вещи. Пытаясь понять происходящее, мужчина вступает в противостояние со своей реальностью, чтобы нарушить цепь пугающих событий.

Качество видео: WEB-DL 1080p
Формат видео: MKV

Видео: 1920x800 (2.40:1), 23,976 fps, AVC, 8612 kbps
Аудио 1: 48 kHz, AC3 Dolby Digital, 3/2 (L,C,R,l,r) + LFE ch, ~384 kbps | RUS
Аудио 2: 48 kHz, AC3 Dolby Digital, 3/2 (L,C,R,l,r) + LFE ch, ~384 kbps | ENG
General
Unique ID : 217430659700716986975826540366970053889 (0xA3939F308C87FC7E847C98F30BE16501)
Complete name : F:\Downloads\Новое\The.Mandela.Effect.2019.D.AMZN.WEB-DL.1080p.mkv
Format : Matroska
Format version : Version 4 / Version 2
File size : 5.24 GiB
Duration : 1 h 19 min
Overall bit rate : 9 381 kb/s
Encoded date : UTC 2020-11-09 23:47:58
Writing application : mkvmerge v8.3.0 ('Over the Horizon') 64bit
Writing library : libebml v1.3.1 + libmatroska v1.4.2

Video
ID : 1
Format : AVC
Format/Info : Advanced Video Codec
Format profile : High@L4
Format settings, CABAC : Yes
Format settings, ReFrames : 4 frames
Codec ID : V_MPEG4/ISO/AVC
Duration : 1 h 19 min
Bit rate mode : Constant
Bit rate : 8 612 kb/s
Nominal bit rate : 10 000 kb/s
Width : 1 920 pixels
Height : 800 pixels
Display aspect ratio : 2.40:1
Frame rate mode : Constant
Frame rate : 23.976 (24000/1001) FPS
Color space : YUV
Chroma subsampling : 4:2:0
Bit depth : 8 bits
Scan type : Progressive
Bits/(Pixel*Frame) : 0.234
Stream size : 4.81 GiB (92%)
Default : Yes
Forced : No
Color range : Limited
Color primaries : BT.709
Transfer characteristics : BT.709
Matrix coefficients : BT.709

Audio #1
ID : 2
Format : AC-3
Format/Info : Audio Coding 3
Mode extension : CM (complete main)
Format settings, Endianness : Big
Codec ID : A_AC3
Duration : 1 h 19 min
Bit rate mode : Constant
Bit rate : 384 kb/s
Channel(s) : 6 channels
Channel positions : Front: L C R, Side: L R, LFE
Sampling rate : 48.0 kHz
Frame rate : 31.250 FPS (1536 spf)
Compression mode : Lossy
Stream size : 219 MiB (4%)
Title : DUB (iTunes)
Language : Russian
Default : Yes
Forced : No

Audio #2
ID : 3
Format : AC-3
Format/Info : Audio Coding 3
Mode extension : CM (complete main)
Format settings, Endianness : Big
Codec ID : A_AC3
Duration : 1 h 19 min
Bit rate mode : Constant
Bit rate : 384 kb/s
Channel(s) : 6 channels
Channel positions : Front: L C R, Side: L R, LFE
Sampling rate : 48.0 kHz
Frame rate : 31.250 FPS (1536 spf)
Compression mode : Lossy
Stream size : 219 MiB (4%)
Title : Original
Language : English
Default : No
Forced : No

Text #1
ID : 4
Format : UTF-8
Codec ID : S_TEXT/UTF8
Codec ID/Info : UTF-8 Plain Text
Duration : 1 h 13 min
Bit rate : 53 b/s
Count of elements : 934
Stream size : 28.6 KiB (0%)
Title : Full
Language : English
Default : No
Forced : No

Text #2
ID : 5
Format : UTF-8
Codec ID : S_TEXT/UTF8
Codec ID/Info : UTF-8 Plain Text
Duration : 1 h 19 min
Bit rate : 55 b/s
Count of elements : 1083
Stream size : 32.3 KiB (0%)
Title : SDH
Language : English
Default : No
Forced : No
скриншот  скриншот  скриншот  
pb.wtf



Скачать Эффект Манделы через торрент https://a.radikal.ru/a34/2011/0f/d52996634ac1.png Скачать фильм Эффект Манделы через торрент бесплантно в хорошем качестве Описание: В семье талантливого программиста произошла трагедия. После этого в его жизни стали происходить странные вещи. Пытаясь понять ... 10 10 4
Info! Золотая раздача, скачанное не засчитывается.
Торрент: Зарегистрирован [2020-11-10 11:11] · скачан: 127 раз
Статус: √ проверено
Размер: 5.24 GB
Как cкачать? Как скачать Эффект Манделы через торрент | qTorrent

% Раздел Тема Автор DL S | L
Фильмы 2019-2020 [DVDrip, WEB-DLRip, HDrip] (DUB, MVO) [ 1.46 GB ] Эффект Манделы / The Mandela Effect [2019 WEB-DLRip] - Twi7ter Скачать
587 | 25
T Фильмы 2019-2020 [DVDrip, WEB-DLRip, HDrip] (DUB, MVO) [ 1.51 GB ] Эффект Манделы / The Mandela Effect [2019 WEB-DLRip-AVC] [MVO] [Синема Ус ] от MediaBit Lithuania Скачать
6 | 0

28-11-2019 20:33  

Отключить всю рекламу на сайте

10-11-2020 14:48 Эффект Манделы Скачать торрент  

мужчина вступает в противостояние со своей реальностью, чтобы нарушить цепь пугающих событий.Половина страны так живёт!!!pb.wtf



10-11-2020 15:37 Эффект Манделы Скачать торрент  

Кто смотрел, дайте мнение?pb.wtf



10-11-2020 20:54 Эффект Манделы Скачать торрент  

FightNight писал(а):

мужчина вступает в противостояние со своей реальностью, чтобы нарушить цепь пугающих событий.Половина страны так живёт!!!

pb.wtf



20-11-2020 14:11 Эффект Манделы Скачать торрент  

Фильм ...НА ЛЮБИТЕЛЯ ВИДИМОpb.wtf



    Дорогой пользователь! Огромная просьба, поблагодарите релизера, оцените раздачу и оставьте свои комментарий, если Вы скачали Эффект Манделы через торрент бесплатно! Внесите свою лепту в развитие PiratBit!
    Комментировать посты могут только пользователи прошедшие не сложную регистрацию
    Показать сообщения:    

    Эффект Манделы через торрент
    Скачать бесплатно Эффект Манделы
    Эффект Манделы скачать торрент
    Эффект Манделы смотреть онлайн
    Cкачать фильм Эффект Манделы бесплатно
    Эффект Манделы скачать торрент в хорошем качестве
    Эффект Манделы смотреть онлайн бесплатно в хорошем качестве


    Вы не можете начинать темы
    Вы не можете отвечать на сообщения
    Вы не можете редактировать свои сообщения
    Вы не можете удалять свои сообщения
    Вы не можете голосовать в опросах
    Вы не можете прикреплять файлы к сообщениям
    Вы можете скачивать файлы