2 сезон

iTunes

MVO

1

2 сезон

iTunes

iTunes

1 сезон

RePack

30

Ultimate

ВАЖНО

ИГРА 18+

pack

RePack

MK11
pack

Легкие деньги

RePack

jed

RePack

fifa19

RePack

RDR2

RePack

NEED FOR SPEED™ PAYBACK

4 сезон

9 сезон

Бесстыжие 9 сезон

Все сериалы

все сериалы на PB.wtf

RePack

FAR CRY 5

Anonymous, доброе утро, мы не успеваем собрать деньги на оплату серверов за декабрь и январь, помогите нам пожалуйста в это трудное время. В качестве благодарности мы отключим Вам всю рекламу на сайте (укажите свой ник в строку Ваше имя)!

×
  
Magnet ссылка

Иллюзия обмана / Now You See Me (Луи Летерье) [2013 г., Триллер, криминал, BDRip 720p / 60 FPS, Дубляж + AVO] (Extended Cut) от R.G. HD-Films pb.wtf

Иллюзия обмана через торрент pb.wtf

Раздают: 2 [ 0 KB/s ] Качают: 1 [ 0 KB/s ]
Размер: 4.47 GB | Добавлен: 2 мес. 13 д. назад | Торрент скачан:38 раз
Скачать  

10-11-2020 17:13 Иллюзия обмана Скачать торрент  

Иллюзия обмана / Now You See Me
Год выпуска: 2013
Страна: Франция, США
Жанр: Триллер, криминал
Продолжительность: 02:04:48
Перевод: Дубляж+ вставки (Ю.Сербин)
Субтитры: Russian, English

Режиссер: Луи Летерье

Бюджет: $75 000 000
Премьера в мире: 21 мая 2013

rating

В ролях: Джесси Айзенберг, Дэйв Франко, Морган Фримен, Марк Руффало, Айла Фишер, Мелани Лоран, Вуди Харрельсон, Майкл Кейн, Майкл Келли, Коммон, Дэвид Уоршофски, Джессика Линдси, Каитриона Бэлфи

Описание: Команда лучших иллюзионистов мира проворачивает дерзкие ограбления прямо во время своих шоу, играя в кошки-мышки с агентами ФБР.

Качество: BDRip 720p / 60 FPS
Формат: MKV
Видео кодек: H.264
Аудио кодек: AC3
Видео: x264, 1280 x 536 ( 2,40:1 ), 4740 kbps, 60,000 fps, ( 0.115 bpp)
Аудио#1: Русский, AC-3, 48.0 KHz, 6 ch, 384 Kbps Dub + вставки (Ю.Сербин)
Релиз от: Автор рипа: slaventi-69
Общее
Уникальный идентификатор : 215637974906751000545785554576101441909 (0xA23A5D015C04B414A060226ACF198175)
Полное имя : F:\Now.You.See.Me.(2013).BDRip.720p.(60 Fps).Extended.Cut.mkv
Формат : Matroska
Версия формата : Version 4
Размер файла : 4,47 Гбайт
Продолжительность : 2 ч. 4 м.
Общий поток : 5129 Кбит/сек
Название фильма : Иллюзия обмана / Now You See Me (2013) BDRip 720p (60 Fps) | Extended Cut
Дата кодирования : UTC 2020-11-10 16:32:25
Программа кодирования : mkvmerge v9.1.0 ('Little Earthquakes') 64bit
Библиотека кодирования : libebml v1.3.3 + libmatroska v1.4.4

Видео
Идентификатор : 1
Формат : AVC
Формат/Информация : Advanced Video Codec
Профиль формата : High@L4.1
Настройки формата : CABAC / 9 Ref Frames
Параметр CABAC формата : Да
Параметр RefFrames формата : 9 кадров
Идентификатор кодека : V_MPEG4/ISO/AVC
Продолжительность : 2 ч. 4 м.
Битрейт : 4740 Кбит/сек
Ширина : 1280 пикселей
Высота : 536 пикселей
Соотношение сторон : 2,40:1
Режим частоты кадров : Постоянный
Частота кадров : 60,000 кадров/сек
Цветовое пространство : YUV
Субдискретизация насыщенности : 4:2:0
Битовая глубина : 8 бит
Тип развёртки : Прогрессивная
Бит/(Пиксели*Кадры) : 0.115
Размер потока : 4,13 Гбайт (92%)
Заголовок : slaventi-69 ( R.G. HD-Films | 60 fps )
Библиотека кодирования : x264 core 130 r2273 b3065e6
Настройки программы : cabac=1 / ref=9 / deblock=1:0:0 / analyse=0x3:0x113 / me=umh / subme=9 / psy=1 / psy_rd=1.00:0.00 / mixed_ref=1 / me_range=32 / chroma_me=1 / trellis=2 / 8x8dct=1 / cqm=0 / deadzone=21,11 / fast_pskip=1 / chroma_qp_offset=-2 / threads=8 / lookahead_threads=4 / sliced_threads=0 / nr=0 / decimate=1 / interlaced=0 / bluray_compat=0 / constrained_intra=0 / bframes=5 / b_pyramid=2 / b_adapt=2 / b_bias=0 / direct=1 / weightb=1 / open_gop=0 / weightp=2 / keyint=600 / keyint_min=23 / scenecut=40 / intra_refresh=0 / rc=crf / mbtree=0 / crf=17.5 / qcomp=0.60 / qpmin=0 / qpmax=69 / qpstep=4 / ip_ratio=1.40 / pb_ratio=1.30 / aq=1:1.00
Язык : English
Default : Да
Forced : Нет

Аудио
Идентификатор : 2
Формат : AC-3
Формат/Информация : Audio Coding 3
Коммерческое название : Dolby Digital
Идентификатор кодека : A_AC3
Продолжительность : 2 ч. 4 м.
Вид битрейта : Постоянный
Битрейт : 384 Кбит/сек
Каналы : 6 каналов
Channel layout : L R C LFE Ls Rs
Частота : 48,0 КГц
Частота кадров : 31,250 кадров/сек (1536 SPF)
Битовая глубина : 16 бит
Метод сжатия : С потерями
Размер потока : 342 Мбайт (7%)
Заголовок : Dub + вставки (Ю.Сербин)
Язык : Russian
ServiceKind/String : Complete Main
Default : Да
Forced : Нет

Текст #1
Идентификатор : 3
Формат : UTF-8
Идентификатор кодека : S_TEXT/UTF8
Идентификатор кодека/Информация : UTF-8 Plain Text
Продолжительность : 1 ч. 56 м.
Битрейт : 125 бит/сек
ElementCount : 2080
Размер потока : 107 Кбайт (0%)
Язык : Russian
Default : Нет
Forced : Нет

Текст #2
Идентификатор : 4
Формат : UTF-8
Идентификатор кодека : S_TEXT/UTF8
Идентификатор кодека/Информация : UTF-8 Plain Text
Продолжительность : 1 ч. 56 м.
Битрейт : 74 бит/сек
ElementCount : 2071
Размер потока : 63,3 Кбайт (0%)
Язык : English
Default : Нет
Forced : Нет

Текст #3
Идентификатор : 5
Формат : UTF-8
Идентификатор кодека : S_TEXT/UTF8
Идентификатор кодека/Информация : UTF-8 Plain Text
Продолжительность : 1 ч. 59 м.
Битрейт : 77 бит/сек
ElementCount : 2081
Размер потока : 68,3 Кбайт (0%)
Заголовок : SDH
Язык : English
Default : Нет
Forced : Нет

Меню
00:00:00.000 : en:00:00:00.000
00:08:26.548 : en:00:08:26.548
00:14:41.923 : en:00:14:41.923
00:21:25.868 : en:00:21:25.868
00:32:02.003 : en:00:32:02.003
00:39:29.158 : en:00:39:29.158
00:47:07.199 : en:00:47:07.199
00:56:43.441 : en:00:56:43.441
01:04:35.371 : en:01:04:35.371
01:10:23.135 : en:01:10:23.135
01:20:04.549 : en:01:20:04.549
01:29:01.002 : en:01:29:01.002
01:35:22.883 : en:01:35:22.883
01:44:06.281 : en:01:44:06.281
01:45:47.507 : en:01:45:47.507
01:54:24.607 : en:01:54:24.607

Просьба к переливающим на другие сайты, в оформлении указывайте пожалуйста авторство группы R.G. HD-Films pb.wtf



Скачать Иллюзия обмана через торрент http://i60.fastpic.ru/big/2014/0129/0e/62c6f6dbfb360b8c6feb07ea61a8550e.jpg Скачать фильм Иллюзия обмана через торрент бесплантно в хорошем качестве Описание: Команда лучших иллюзионистов мира проворачивает дерзкие ограбления прямо во время своих шоу, играя в кошки-мышки с агентами ... 9.8 10 5
Info! Золотая раздача, скачанное не засчитывается.
Торрент: Зарегистрирован [2020-11-10 17:13] · скачан: 38 раз
Статус: √ проверено
Размер: 4.47 GB
Как cкачать? Как скачать Иллюзия обмана через торрент | UTorrent

% Раздел Тема Автор DL S | L
Фильмы (HD 720p, 1080p) (48-60 fps) [ 4.73 GB ] Иллюзия обмана 2 / Now You See Me 2 [2016 BDRip 720p / 60 FPS ] от R.G. HD-Films slaventi-69 Скачать
5 | 0

28-11-2019 20:33  

Отключить всю рекламу на сайте

10-11-2020 17:33 Иллюзия обмана Скачать торрент  

хороший фильмpb.wtf



10-11-2020 17:51 Иллюзия обмана Скачать торрент  

Раздача стала золотой благодаря:
haman15(5000)
,

Спасибо за Золото.pb.wtf



11-11-2020 12:19 Иллюзия обмана Скачать торрент  

Спасибо за фильм! Жаль с золотом не успел! Вторая часть моя!pb.wtf



11-11-2020 14:25 Иллюзия обмана Скачать торрент  

михакруг писал(а):

Спасибо за фильм! Жаль с золотом не успел! Вторая часть моя!

Не вопрос, все готово, смотрите в удовольствие.pb.wtf



    Дорогой пользователь! Огромная просьба, поблагодарите релизера, оцените раздачу и оставьте свои комментарий, если Вы скачали Иллюзия обмана через торрент бесплатно! Внесите свою лепту в развитие PiratBit!
    Комментировать посты могут только пользователи прошедшие не сложную регистрацию
    Показать сообщения:    

    Иллюзия обмана через торрент
    Скачать бесплатно Иллюзия обмана
    Иллюзия обмана скачать торрент
    Иллюзия обмана смотреть онлайн
    Cкачать фильм Иллюзия обмана бесплатно
    Иллюзия обмана скачать торрент в хорошем качестве
    Иллюзия обмана смотреть онлайн бесплатно в хорошем качестве


    Вы не можете начинать темы
    Вы не можете отвечать на сообщения
    Вы не можете редактировать свои сообщения
    Вы не можете удалять свои сообщения
    Вы не можете голосовать в опросах
    Вы не можете прикреплять файлы к сообщениям
    Вы можете скачивать файлы