Достать ножи: Стеклянная луковица

MVO

Добыча

Дубляж

Уэнсдэй

1 сезон

Тор

Дубляж

13 клиническая

1 сезон

Жестокая ночь

MVO

Одни из нас

1 сезон

Deluxe

pack

Рекомендуем

30

Пиратка

ВАЖНО

ВАЖНО

Ghostwire

Пиратка

jed

RePack

nioh2

RePack

RDR2

RePack

NEED FOR SPEED™ PAYBACK

RePack

скачать торрент

Кинопоиск HD

Острые козырьки 6 сезон

6 сезон

FAR CRY 6

RePack

скачать торрент

Лицензия

скачать торрент

MVO

1

1 сезон

скачать торрент

1 сезон

скачать торрент

Лицензия

  

2067: Петля времени / 2067 (Сет Ларни) [2020, Фантастика, драма, BDRip 1080p] Дубляж [iTunes]

2067: Петля времени через торрент pb.wtf

Размер: 11.17 GB | Добавлен: 2 года 2 мес. назад | Торрент скачан:312 раз
Смотреть онлайн | Скачать | Поддержите нас   

10-11-2020 19:58 2067: Петля времени Скачать торрент  

2067: Петля времени | 2067
Год выпуска: 2020
Страна: Австралия
Студия: Arcadia, Elevate Production Finance, Futurism Studios
Жанр: Фантастика, драма
Продолжительность: 01:54:18
Перевод: Дублированный | iTunes
Субтитры: Английские

Режиссер: Сет Ларни

rating

В ролях: Коди Смит-МакФи, Райан Квантен, Лианна Уолсмен, Дебора Мэйлман, Сана а Шейк, Финн Литтл, Дэмиэн Уолш-Хоулинг, Энди МакФи, Аарон Гленнэйн, Мэтт Тестро

Описание: 2067 год. Добро пожаловать в мир, где царит хаос: исчезли леса и растения, вымерли дикие животные, а люди оказались на грани вымирания из-за отсутствия кислорода. Неожиданное послание из будущего «Отправьте Итана Уайта» — последняя надежда человечества. Кто такой Итан Уайт? Сможет ли он спасти мир?

Качество: BDRip 1080p
Формат: MKV

Видео: MPEG-4 AVC, 1920x804, 13.0 Mbit/s, 23.976 fps
Аудио#1: 48 kHz, AC3, 5.1, 384 Kbps | iTunes | RUS |
Аудио#2: 48 kHz, AC3, 5.1, 640 Kbps | Оригинал | ENG |
скриншот  скриншот  скриншот  скриншот  скриншот  

General
Unique ID : 42451729887090588470083405057211038057 (0x1FEFE7E1122343ED93183AA682A0F969)
Complete name : D:Video1112067.2020.BDRip.1080p.seleZen.mkv
Format : Matroska
Format version : Version 4
File size : 11.2 GiB
Duration : 1 h 54 min
Overall bit rate : 14.0 Mb/s
Movie name : 2067 2020 from seleZen
Encoded date : UTC 2020-11-10 19:47:55
Writing application : mkvmerge v40.0.0 ('Old Town Road + Pony') 64-bit
Writing library : libebml v1.3.9 + libmatroska v1.5.2

Video
ID : 1
Format : AVC
Format/Info : Advanced Video Codec
Format profile : [email protected]
Format settings : CABAC / 5 Ref Frames
Format settings, CABAC : Yes
Format settings, Reference : 5 frames
Codec ID : V_MPEG4/ISO/AVC
Duration : 1 h 54 min
Bit rate : 13.0 Mb/s
Width : 1 920 pixels
Height : 804 pixels
Display aspect ratio : 2.40:1
Frame rate mode : Constant
Frame rate : 23.976 (24000/1001) FPS
Color space : YUV
Chroma subsampling : 4:2:0
Bit depth : 8 bits
Scan type : Progressive
Bits/(Pixel*Frame) : 0.350
Stream size : 10.4 GiB (93%)
Title : MTeam
Writing library : x264 core 157 r2938 2b00a84 [email protected] Mod
Encoding settings : cabac=1 / ref=5 / deblock=1:-3:-3 / analyse=0x3:0x133 / me=umh / subme=10 / psy=1 / psy_rd=1.05:0.00 / mixed_ref=1 / me_range=32 / chroma_me=1 / trellis=2 / 8x8dct=1 / cqm=0 / deadzone=21,11 / fast_pskip=0 / chroma_qp_offset=-2 / threads=12 / lookahead_threads=2 / sliced_threads=0 / nr=0 / decimate=0 / interlaced=0 / bluray_compat=0 / constrained_intra=0 / bframes=8 / b_pyramid=2 / b_adapt=2 / b_bias=0 / direct=3 / weightb=1 / open_gop=0 / weightp=2 / keyint=250 / keyint_min=24 / scenecut=40 / intra_refresh=0 / rc_lookahead=250 / rc=crf / mbtree=0 / crf=16.8 / qcomp=0.60 / qpmin=0 / qpmax=69 / qpstep=4 / vbv_maxrate=62500 / vbv_bufsize=78125 / crf_max=0.0 / nal_hrd=none / filler=0 / ip_ratio=1.30 / pb_ratio=1.20 / aq=3:0.80
Language : English
Default : Yes
Forced : No
Color range : Limited
Color primaries : BT.709
Matrix coefficients : BT.709

Audio #1
ID : 2
Format : AC-3
Format/Info : Audio Coding 3
Commercial name : Dolby Digital
Codec ID : A_AC3
Duration : 1 h 54 min
Bit rate mode : Constant
Bit rate : 384 kb/s
Channel(s) : 6 channels
Channel layout : L R C LFE Ls Rs
Sampling rate : 48.0 kHz
Frame rate : 31.250 FPS (1536 SPF)
Compression mode : Lossy
Stream size : 314 MiB (3%)
Title : iTunes
Language : Russian
Service kind : Complete Main
Default : Yes
Forced : Yes

Audio #2
ID : 3
Format : AC-3
Format/Info : Audio Coding 3
Commercial name : Dolby Digital
Codec ID : A_AC3
Duration : 1 h 54 min
Bit rate mode : Constant
Bit rate : 640 kb/s
Channel(s) : 6 channels
Channel layout : L R C LFE Ls Rs
Sampling rate : 48.0 kHz
Frame rate : 31.250 FPS (1536 SPF)
Compression mode : Lossy
Stream size : 523 MiB (5%)
Title : Original
Language : English
Service kind : Complete Main
Default : No
Forced : No

Text
ID : 4
Format : UTF-8
Codec ID : S_TEXT/UTF8
Codec ID/Info : UTF-8 Plain Text
Duration : 1 h 50 min
Bit rate : 45 b/s
Count of elements : 1352
Stream size : 36.8 KiB (0%)
Title : SDH
Language : English
Default : No
Forced : No

Menu
00:00:00.000 : en:Chapter 01
00:18:22.435 : en:Chapter 02
00:36:01.534 : en:Chapter 03
01:01:42.991 : en:Chapter 04
01:15:35.406 : en:Chapter 05
01:24:37.239 : en:Chapter 06
01:36:34.372 : en:Chapter 07
01:47:25.939 : en:Chapter 08




Скачать 2067: Петля времени через торрент https://i114.fastpic.ru/big/2020/1111/4f/e04cbd6af70e9a317b04931331527f4f.jpg Скачать, смотреть онлайн 2067: Петля времени бесплантно в хорошем качестве Описание: 2067 год. Добро пожаловать в мир, где царит хаос: исчезли леса и растения, вымерли дикие животные, а люди оказались на грани ... 8.4 10 12
Info! Золотая раздача, скачанное не засчитывается.
Торрент: Зарегистрирован [2020-11-10 19:58] · скачан: 312 раз
Статус: √ проверено
Размер: 11.17 GB
Как cкачать? Как скачать 2067: Петля времени через торрент | UTorrent

% Раздел Тема Автор DL S | L
Фильмы (WEB-DL 720p, 1080p) [ 3.52 GB ] 2067: Петля времени / 2067 | iTunes | 720p bober100 Скачать
1 | 0
Фильмы [HD 720p, 1080p] (Хороший звук DUB, MVO) [ 4.3 GB ] 2067: Петля времени / 2067 | iTunes | 720p bober100 Скачать
1 | 0
Фильмы (WEB-DL 720p, 1080p) [ 7.28 GB ] 2067: Петля времени / 2067 | iTunes | 1080p bober100 Скачать
3 | 0
Фильмы (Blu-ray, BD-Remux, HDDVD) [ 25.16 GB ] 2067: Петля времени / 2067 | iTunes | BD Remux 1080p bober100 Скачать
1 | 0
Фильмы 2019-2020 [DVDrip, WEB-DLRip, HDrip] (DUB, MVO) [ 1.46 GB ] 2067: Петля времени / 2067 | Лицензия | HDRip Twi7ter Скачать
3 | 0
Фильмы 2019-2020 [DVDrip, WEB-DLRip, HDrip] (DUB, MVO) [ 2.13 GB ] 2067: Петля времени / 2067 | Лицензия | HDRip Twi7ter Скачать
3 | 0
Фильмы 2019-2020 [DVDrip, WEB-DLRip, HDrip] (DUB, MVO) [ 1.46 GB ] 2067: Петля времени / 2067 | iTunes | HDRip bober100 Скачать
1 | 0

28-11-2019 20:33  


Отключить вcю реклaмy на сайте, в т.ч. и в плеере онлайн просмотра!

    Дорогой пользователь! Огромная просьба, поблагодарите релизера, оцените раздачу и оставьте свои комментарий, если Вы скачали 2067: Петля времени через торрент бесплатно!!
    Комментировать посты могут только пользователи прошедшие не сложную регистрацию
    Показать сообщения:    


    2067: Петля времени через торрент
    Скачать бесплатно 2067: Петля времени
    2067: Петля времени скачать торрент
    2067: Петля времени смотреть онлайн
    Cкачать фильм 2067: Петля времени бесплатно
    2067: Петля времени скачать торрент в хорошем качестве
    2067: Петля времени смотреть онлайн бесплатно в хорошем качестве
    Вы не можете начинать темы
    Вы не можете отвечать на сообщения
    Вы не можете редактировать свои сообщения
    Вы не можете удалять свои сообщения
    Вы не можете голосовать в опросах
    Вы не можете прикреплять файлы к сообщениям
    Вы можете скачивать файлы
    2067: Петля времени / 2067 [2020, Фантастика, драма, BDRip 1080p] Дубляж [iTunes] смотреть онлайн, скачать торрент picoco.icu