Всегда рабочее зеркало без VPN и Proxy просто перед .vidak.icu напиши любое слово или цифру, Пример http://gyv5.vidak.icu

MVO

2 сезон

1 сезон

1

1 сезон

iTunes

2 сезон

13

1 сезон

Распродажа

pack

Рекомендуем

Пиратка

30

ВАЖНО

RePack

MK11

RePack

jed

RePack

fifa19

RePack

RDR2

RePack

NEED FOR SPEED™ PAYBACK

Кинопоиск HD

6 сезон

 Острые козырьки 6 сезон

Все сериалы

все сериалы на PB.wtf

RePack

FAR CRY 5

Anonymous, нам критически не хватает 5601 руб. на оплату серверов и переферии за Апрель, помоги нам пожалуйста, вся надежда только на тебя. В благодарность мы отключим тебе всю рекламу на сайте!

×
  
Magnet ссылка

Иллюзия обмана 2 / Now You See Me 2 (Джон М. Чу) [2016 г., Боевик, триллер, комедия, криминал, детектив, приключения, BDRip 720p / 60 FPS, Дубляж] от R.G. HD-Films pb.wtf

Иллюзия обмана 2 через торрент pb.wtf

Раздают: 1 [ 0 KB/s ]
Размер: 4.73 GB | Добавлен: 1 год 6 мес. назад | Торрент скачан:105 раз
Смотреть онлайн Иллюзия обмана 2 | Скачать    Ребята, помогите собрать деньги на оплату серверов!!!

11-11-2020 14:20 Иллюзия обмана 2 Скачать торрент  

Иллюзия обмана 2 / Now You See Me 2
Год выпуска: 2016
Страна: США
Жанр: Боевик, триллер, комедия, криминал, детектив, приключения
Продолжительность: 02:09:13
Перевод: Дубляж
Субтитры: English

Режиссер: Джон М. Чу

Бюджет: $90 000 000
Премьера в мире: 2 июня 2016

rating

В ролях: Джесси Айзенберг, Лиззи Каплан, Дэниэл Рэдклифф, Марк Руффало, Морган Фримен, Майкл Кейн, Вуди Харрельсон, Дэйв Франко, Санаа Лэтэн

Описание: Труппа уличных фигляров и скоморохов из уездного шапито под названием "Четыре всадника" достигла невиданных вершин мастерства в насаждении массового психоза. Демонстрируемые ими фокусы вышли на новый уровень технологического прогресса, оставляя после себя множество бесчувственных, временно не подлежащих идентификации тел, застывших в причудливых позах. Но враги не дремлют и засылают в глубокий тыл "Всадникам" злобного техноманьяка.

Качество: BDRip 720p / 60 FPS
Формат: MKV
Видео кодек: H.264
Аудио кодек: AC3
Видео: x264, 1280 x 536 ( 2,40:1 ), 4856 kbps, 60,000 fps, ( 0.118 bpp)
Аудио#1: Русский, AC-3, 48.0 KHz, 6 ch, 384 Kbps Dub
Релиз от: Автор рипа: slaventi-69
Общее
Уникальный идентификатор : 178259351848885986613864815738018649968 (0x861B809A9E333261A6F65D4A0878D770)
Полное имя : F:\Now.You.See.Me.2.(2016).BDRip.720p.(60 Fps).mkv
Формат : Matroska
Версия формата : Version 4
Размер файла : 4,73 Гбайт
Продолжительность : 2 ч. 9 м.
Общий поток : 5244 Кбит/сек
Название фильма : Иллюзия обмана 2 / Now You See Me 2 (2016) BDRip 720p (60 Fps)
Дата кодирования : UTC 2020-11-10 17:33:42
Программа кодирования : mkvmerge v9.1.0 ('Little Earthquakes') 64bit
Библиотека кодирования : libebml v1.3.3 + libmatroska v1.4.4

Видео
Идентификатор : 1
Формат : AVC
Формат/Информация : Advanced Video Codec
Профиль формата : High@L4.1
Настройки формата : CABAC / 9 Ref Frames
Параметр CABAC формата : Да
Параметр RefFrames формата : 9 кадров
Идентификатор кодека : V_MPEG4/ISO/AVC
Продолжительность : 2 ч. 9 м.
Битрейт : 4856 Кбит/сек
Ширина : 1280 пикселей
Высота : 536 пикселей
Соотношение сторон : 2,40:1
Режим частоты кадров : Постоянный
Частота кадров : 60,000 кадров/сек
Цветовое пространство : YUV
Субдискретизация насыщенности : 4:2:0
Битовая глубина : 8 бит
Тип развёртки : Прогрессивная
Бит/(Пиксели*Кадры) : 0.118
Размер потока : 4,38 Гбайт (93%)
Заголовок : slaventi-69 ( R.G. HD-Films | 60 fps )
Библиотека кодирования : x264 core 130 r2273 b3065e6
Настройки программы : cabac=1 / ref=9 / deblock=1:0:0 / analyse=0x3:0x113 / me=umh / subme=9 / psy=1 / psy_rd=1.00:0.00 / mixed_ref=1 / me_range=32 / chroma_me=1 / trellis=2 / 8x8dct=1 / cqm=0 / deadzone=21,11 / fast_pskip=1 / chroma_qp_offset=-2 / threads=10 / lookahead_threads=4 / sliced_threads=0 / nr=0 / decimate=1 / interlaced=0 / bluray_compat=0 / constrained_intra=0 / bframes=5 / b_pyramid=2 / b_adapt=2 / b_bias=0 / direct=1 / weightb=1 / open_gop=0 / weightp=2 / keyint=600 / keyint_min=23 / scenecut=40 / intra_refresh=0 / rc=crf / mbtree=0 / crf=17.5 / qcomp=0.60 / qpmin=0 / qpmax=69 / qpstep=4 / ip_ratio=1.40 / pb_ratio=1.30 / aq=1:1.00
Язык : English
Default : Да
Forced : Нет

Аудио
Идентификатор : 2
Формат : AC-3
Формат/Информация : Audio Coding 3
Коммерческое название : Dolby Digital
Идентификатор кодека : A_AC3
Продолжительность : 2 ч. 9 м.
Вид битрейта : Постоянный
Битрейт : 384 Кбит/сек
Каналы : 6 каналов
Channel layout : L R C LFE Ls Rs
Частота : 48,0 КГц
Частота кадров : 31,250 кадров/сек (1536 SPF)
Битовая глубина : 16 бит
Метод сжатия : С потерями
Размер потока : 355 Мбайт (7%)
Заголовок : Dub
Язык : Russian
ServiceKind/String : Complete Main
Default : Да
Forced : Нет

Текст #1
Идентификатор : 3
Формат : UTF-8
Идентификатор кодека : S_TEXT/UTF8
Идентификатор кодека/Информация : UTF-8 Plain Text
Продолжительность : 2 ч. 0 м.
Битрейт : 81 бит/сек
ElementCount : 1934
Размер потока : 72,0 Кбайт (0%)
Заголовок : Full
Язык : English
Default : Нет
Forced : Нет

Текст #2
Идентификатор : 4
Формат : UTF-8
Идентификатор кодека : S_TEXT/UTF8
Идентификатор кодека/Информация : UTF-8 Plain Text
Продолжительность : 2 ч. 0 м.
Битрейт : 88 бит/сек
ElementCount : 2115
Размер потока : 78,0 Кбайт (0%)
Заголовок : SDH
Язык : English
Default : Нет
Forced : Нет

Меню
00:00:00.000 : en:00:00:00.000
00:07:05.133 : en:00:07:05.133
00:16:03.838 : en:00:16:03.838
00:25:29.570 : en:00:25:29.570
00:33:16.828 : en:00:33:16.828
00:39:57.645 : en:00:39:57.645
00:48:07.718 : en:00:48:07.718
00:53:34.711 : en:00:53:34.711
01:03:53.246 : en:01:03:53.246
01:14:00.561 : en:01:14:00.561
01:20:23.569 : en:01:20:23.569
01:26:37.400 : en:01:26:37.400
01:32:37.051 : en:01:32:37.051
01:38:46.837 : en:01:38:46.837
01:48:13.529 : en:01:48:13.529
01:54:04.921 : en:01:54:04.921

Просьба к переливающим на другие сайты, в оформлении указывайте пожалуйста авторство группы R.G. HD-Films pb.wtf



Скачать Иллюзия обмана 2 через торрент http://s018.radikal.ru/i528/1609/ce/7b0c25cd9151.png Скачать, смотреть онлайн Иллюзия обмана 2 бесплантно в хорошем качестве Описание: Труппа уличных фигляров и скоморохов из уездного шапито под названием "Четыре всадника" достигла невиданных вершин мастерства в ... 10 10 7
Info! Золотая раздача, скачанное не засчитывается.
Торрент: Зарегистрирован [2020-11-11 14:20] · скачан: 105 раз
Статус: √ проверено
Размер: 4.73 GB
Как cкачать? Как скачать Иллюзия обмана 2 через торрент | UTorrent

28-11-2019 20:33  

Отключить всю рекламу на сайте

11-11-2020 16:00 Иллюзия обмана 2 Скачать торрент  

Огромное человеческое! И позолотить успел однако!
Из вселенной DC от тебя можно ещё ожидать? P.S. ну по крайней мере (Человек из стали, Аквамен, и Бэтмен против Супермена: На заре справедливости)pb.wtf



11-11-2020 16:13 Иллюзия обмана 2 Скачать торрент  

михакруг(5000)
Спасибо за Золото.
Думаю будет все, но не в сборнике, с учетом того что:
«Чудо-женщина» (2017)
«Чудо-женщина 1984» (2020)
«Человек из стали» (2013)
«Отряд самоубийц» (2016)
«Бэтмен против Супермена: На заре справедливости» (2016)
«Лига справедливости» (2017)
«Аквамен» (2018)
«Шазам!» (2019)
«Хищные птицы: Потрясающая история Харли Квинн» (2020)
Потом доснимут:
«Бэтмен»
«Отряд Самоубийц»
«Флэш»
«Аквамен 2»
«Черный Адам»
Добавлять в сборник новые фильмы, есть сомнения что будут перекачивать заново, а раздачи просто умрут. По этому по одному фильму, без сборника.pb.wtf



    Дорогой пользователь! Огромная просьба, поблагодарите релизера, оцените раздачу и оставьте свои комментарий, если Вы скачали Иллюзия обмана 2 через торрент бесплатно!
    Комментировать посты могут только пользователи прошедшие не сложную регистрацию
    Показать сообщения:    

    Иллюзия обмана 2 через торрент
    Скачать бесплатно Иллюзия обмана 2
    Иллюзия обмана 2 скачать торрент
    Иллюзия обмана 2 смотреть онлайн
    Cкачать фильм Иллюзия обмана 2 бесплатно
    Иллюзия обмана 2 скачать торрент в хорошем качестве
    Иллюзия обмана 2 смотреть онлайн бесплатно в хорошем качестве


    Вы не можете начинать темы
    Вы не можете отвечать на сообщения
    Вы не можете редактировать свои сообщения
    Вы не можете удалять свои сообщения
    Вы не можете голосовать в опросах
    Вы не можете прикреплять файлы к сообщениям
    Вы можете скачивать файлы