Ссылка на приватное зеркало нашего сайта всего за 1$. Внимание количество ограничено!!!

2 сезон

iTunes

1 сезон

1

2 сезон

2 сезон

iTunes

1 сезон

RePack

30

Ultimate

ВАЖНО

ИГРА 18+

pack

RePack

MK11
pack

Забери бонус

RePack

jed

!!Акция!!

Alien_Rage

RePack

fifa19

RePack

Assassins Creed: Odyssey

RePack

NEED FOR SPEED™ PAYBACK

4 сезон

9 сезон

Бесстыжие 9 сезон

Все сериалы

все сериалы на PB.wtf

RePack

FAR CRY 5
  

Капоне. Лицо со шрамом / Capone (Джош Транк) [2020, драма, криминал, биография, BD Remux 1080p] DUB [iTunes] pb.wtf

Капоне. Лицо со шрамом через торрент pb.wtf

Размер: 18.88 GB | Добавлен: 16 д. назад | Торрент скачан:26 раз
Скачать  

12-11-2020 05:34 Капоне. Лицо со шрамом Скачать торрент  

Капоне. Лицо со шрамом | Capone
Год выпуска: 2020
Страна: Канада, США
Студия: BRON Studios, A Band Apart, Addictive Pictures
Жанр: драма, криминал, биография
Продолжительность: 01:44:45
Перевод(ы): Дублированный | iTunes
Субтитры: Русские (Forced, full), английские

Режиссер: Джош Транк

rating

В ролях: Линда Карделлини, Том Харди, Ноэль Фишер, Кайл МакЛахлан, Мэтт Диллон, Кэтрин Нардуччи, Джек Лауден, Ал Сапиенза, Тильда Дель Торо, Уэйн Пер, Роуз Бьянко, Мэнни Фахардо, Эдгар Арреола, Дэвид Уочс, Тильда Дель Торо, Джош Транк

Описание: 17 октября 1931, самый известный в мире гангстер Аль Капоне был осужден за уклонение от уплаты налогов. В тюрьме его здоровье ухудшилось из-за нейросифилиса. 10 лет спустя, когда он больше не представлял угрозы, его выпустили из тюрьмы. Он живёт в ссылке, во Флориде, под наблюдением, и продолжает оставаться предметом пристального внимания ФБР. Ведь при аресте так и не была найдена крупная сумма денег — итог всей криминальной деятельности знаменитого мафиози. По всему дому расставлены жучки, под подозрением каждый член большой семьи Капоне. Удастся ли спецслужбам добиться от теряющего память гангстера информации, где и при каких обстоятельствах он спрятал деньги? В фильме мы видим последний год его жизни.

Качество: BD Remux 1080p
Формат: MKV

Видео: MPEG-4 AVC, 1920x1080, 25.0 Mbit/s, 23.976 fps
Аудио #01: 48 kHz, AC3, 5.1, 384 Kbps | iTunes | RUS |
Аудио #02: 48 kHz, DTS-HD MA, 5.1, 1760 Kbps | Оригинал | ENG |
скриншот  скриншот  скриншот  скриншот  скриншот  

General
Unique ID : 133058929169644358043425804374458647105 (0x641A37B500045795B7FC465970F64241)
Complete name : D:Video1111Capone.2020.BDREMUX.1080p.seleZen.mkv
Format : Matroska
Format version : Version 4
File size : 18.9 GiB
Duration : 1 h 43 min
Overall bit rate mode : Variable
Overall bit rate : 26.0 Mb/s
Movie name : Capone 2020 from селезень
Encoded date : UTC 2020-11-12 04:26:45
Writing application : mkvmerge v40.0.0 ('Old Town Road + Pony') 64-bit
Writing library : libebml v1.3.9 + libmatroska v1.5.2

Video
ID : 1
Format : AVC
Format/Info : Advanced Video Codec
Format profile : High@L4.1
Format settings : CABAC / 4 Ref Frames
Format settings, CABAC : Yes
Format settings, Reference : 4 frames
Codec ID : V_MPEG4/ISO/AVC
Duration : 1 h 43 min
Bit rate mode : Constant
Bit rate : 25.0 Mb/s
Width : 1 920 pixels
Height : 1 080 pixels
Display aspect ratio : 16:9
Frame rate mode : Constant
Frame rate : 23.976 (24000/1001) FPS
Standard : NTSC
Color space : YUV
Chroma subsampling : 4:2:0
Bit depth : 8 bits
Scan type : Progressive
Bits/(Pixel*Frame) : 0.503
Stream size : 17.3 GiB (92%)
Language : English
Default : Yes
Forced : No
Color range : Limited
Color primaries : BT.709
Transfer characteristics : BT.709
Matrix coefficients : BT.709

Audio #1
ID : 2
Format : AC-3
Format/Info : Audio Coding 3
Commercial name : Dolby Digital
Codec ID : A_AC3
Duration : 1 h 43 min
Bit rate mode : Constant
Bit rate : 384 kb/s
Channel(s) : 6 channels
Channel layout : L R C LFE Ls Rs
Sampling rate : 48.0 kHz
Frame rate : 31.250 FPS (1536 SPF)
Compression mode : Lossy
Stream size : 285 MiB (1%)
Title : iTunes
Language : Russian
Service kind : Complete Main
Default : Yes
Forced : Yes

Audio #2
ID : 3
Format : DTS XLL
Format/Info : Digital Theater Systems
Commercial name : DTS-HD Master Audio
Codec ID : A_DTS
Duration : 1 h 43 min
Bit rate mode : Variable
Bit rate : 1 760 kb/s
Channel(s) : 6 channels
Channel layout : C L R Ls Rs LFE
Sampling rate : 48.0 kHz
Frame rate : 93.750 FPS (512 SPF)
Bit depth : 16 bits
Compression mode : Lossless
Stream size : 1.28 GiB (7%)
Title : Original
Language : English
Default : No
Forced : No

Text #1
ID : 4
Format : UTF-8
Codec ID : S_TEXT/UTF8
Codec ID/Info : UTF-8 Plain Text
Duration : 1 h 38 min
Bit rate : 62 b/s
Count of elements : 1154
Stream size : 45.0 KiB (0%)
Title : Full [Focs]
Language : Russian
Default : No
Forced : No

Text #2
ID : 5
Format : UTF-8
Codec ID : S_TEXT/UTF8
Codec ID/Info : UTF-8 Plain Text
Duration : 1 h 32 min
Bit rate : 40 b/s
Count of elements : 948
Stream size : 27.4 KiB (0%)
Title : Full
Language : English
Default : No
Forced : No

Text #3
ID : 6
Format : UTF-8
Codec ID : S_TEXT/UTF8
Codec ID/Info : UTF-8 Plain Text
Duration : 1 h 35 min
Bit rate : 47 b/s
Count of elements : 1185
Stream size : 33.1 KiB (0%)
Title : SDH
Language : English
Default : No
Forced : No

Menu
00:00:00.000 : en:Chapter 01
00:12:44.054 : en:Chapter 02
00:31:39.564 : en:Chapter 03
00:55:52.515 : en:Chapter 04
01:17:14.129 : en:Chapter 05
01:32:59.031 : en:Chapter 06

pb.wtf



Скачать Капоне. Лицо со шрамом через торрент https://b.radikal.ru/b12/2011/b1/1d77d568c333.jpg Скачать фильм Капоне. Лицо со шрамом через торрент бесплантно в хорошем качестве Описание: 17 октября 1931, самый известный в мире гангстер Аль Капоне был осужден за уклонение от уплаты налогов. В тюрьме его здоровье ... 10 10 5
Торрент: Зарегистрирован [2020-11-12 05:34] · скачан: 26 раз
Статус: √ проверено
Размер: 18.88 GB
Как cкачать? Как скачать Капоне. Лицо со шрамом через торрент | qTorrent

% Раздел Тема Автор DL S | L
Фильмы 2019-2020 [DVDrip, WEB-DLRip, HDrip] (DUB, MVO) [ 1.41 GB ] Капоне. Лицо со шрамом / Capone [2020 биография BDRip] - Twi7ter Скачать
15 | 2
Фильмы 2019-2020 [DVDrip, WEB-DLRip, HDrip] (DUB, MVO) [ 1.44 GB ] Капоне. Лицо со шрамом / Capone [2020 биография HDRip-AVC] от MediaBit Lithuania Скачать
5 | 0
Фильмы 2019-2020 [DVDrip, WEB-DLRip, HDrip] (DUB, MVO) [ 1.46 GB ] Капоне. Лицо со шрамом / Capone [2020 биография BDRip] bober100 Скачать
2 | 0
Фильмы [HD 720p, 1080p] (Хороший звук DUB, MVO) [ 5.93 GB ] Капоне. Лицо со шрамом / Capone [2020 биография BDRip 720p] +MVO [HDrezka Studio] +AVO [Яроцкий] bober100 Скачать
2 | 0
Фильмы [HD 720p, 1080p] (Хороший звук DUB, MVO) [ 8.44 GB ] Капоне. Лицо со шрамом / Capone [2020 биография BDRip 1080p] +MVO [HDrezka Studio] +AVO [Яроцкий] bober100 Скачать
3 | 0

28-11-2019 20:33  

Отключить всю рекламу на сайте

    Дорогой пользователь! Огромная просьба, поблагодарите релизера, оцените раздачу и оставьте свои комментарий, если Вы скачали Капоне. Лицо со шрамом через торрент бесплатно! Внесите свою лепту в развитие PiratBit!
    Комментировать посты могут только пользователи прошедшие не сложную регистрацию
    Показать сообщения:    

    Капоне. Лицо со шрамом через торрент
    Скачать бесплатно Капоне. Лицо со шрамом
    Капоне. Лицо со шрамом скачать торрент
    Капоне. Лицо со шрамом смотреть онлайн
    Cкачать фильм Капоне. Лицо со шрамом бесплатно
    Капоне. Лицо со шрамом скачать торрент в хорошем качестве
    Капоне. Лицо со шрамом смотреть онлайн бесплатно в хорошем качестве


    Вы не можете начинать темы
    Вы не можете отвечать на сообщения
    Вы не можете редактировать свои сообщения
    Вы не можете удалять свои сообщения
    Вы не можете голосовать в опросах
    Вы не можете прикреплять файлы к сообщениям
    Вы можете скачивать файлы