Ссылка на приватное зеркало нашего сайта всего за 1$. Внимание количество ограничено!!!

2 сезон

iTunes

1 сезон

1

2 сезон

2 сезон

iTunes

1 сезон

RePack

30

Новинка

ВАЖНО

ИГРА 18+

pack

RePack

MK11
pack

Забери бонус

RePack

jed

!!Акция!!

Alien_Rage

RePack

fifa19

RePack

Assassins Creed: Odyssey

RePack

NEED FOR SPEED™ PAYBACK

4 сезон

9 сезон

Бесстыжие 9 сезон

Все сериалы

все сериалы на PB.wtf

RePack

FAR CRY 5
  

Октагон: Боец vs Рестлер / Cagefighter (Джесси Киньонес) [2020, Боевик, спорт, WEB-DL 1080p] [DUB] [iTunes] pb.wtf

Октагон: Боец vs Рестлер через торрент pb.wtf

Раздают: 6 [ 1 KB/s ]
Размер: 3.24 GB | Добавлен: 19 д. назад | Торрент скачан:77 раз
Скачать  

12-11-2020 15:57 Октагон: Боец vs Рестлер Скачать торрент  

Октагон: Боец vs Рестлер / Cagefighter Информация о фильме

Год выхода: 2020
Жанр: Боевик, спорт
Страна: Великобритания
Студия: Anamorphic Media, Echolands Creative Group, Trilight Entertainment, Woolfcub Productions
Продолжительность: 01:33:51
Перевод: Профессиональный (полное дублирование) | iTunes

Режиссер: Джесси Киньонес

В ролях: Алекс Монтаньяни, Джина Гершон, Джонатан Гуд, Бренна Коутс, Чак Лиделл, Элайджа Бэйкер, Джейсон Ресо, Джорджия Браднер, Лео Фафард, Лоуелл Дин

О фильме:

Рисс – величайший чемпион ММА и легенда октагона. Оказаться с ним в одной клетке – все равно что поставить себя под ядерный удар. Но его следующим соперником – в рамках «боя века» – неожиданно выбран знаменитый рестлер Рэнди Стоун – ярый провокатор и шоумен, готовый на всё, чтобы развлечь зрителей. Два мира, и только одна победа.


rating

Файл

Качество: WEB-DL 1080p
Формат: MKV
Кодек: AVC
Видео: 1920x804, 25 fps, ~ 4 555 Kbps avg
Аудио: AC3, 48 kHz, 6 ch, ~384.00 kbps avg | русский | iTunes

Субтитры: Russian (Full)
General
Unique ID : 138606519433665783245229461575234129166 (0x6846A5063D56CC12327B62B8C0828D0E)
Complete name : G:\OCTAGONE_2020_WEB-DL_1080p-BLUEBIRD.mkv
Format : Matroska
Format version : Version 4
File size : 3.24 GiB
Duration : 1 h 33 min
Overall bit rate : 4 941 kb/s
Movie name : OCTAGONE_2020_WEB-DL_1080p-BLUEBIRD
Encoded date : UTC 2020-11-11 19:32:29
Writing application : mkvmerge v43.0.0 ('The Quartermaster') 64-bit
Writing library : libebml v1.3.10 + libmatroska v1.5.2
Cover : Yes
Attachments : cover.jpg

Video
ID : 1
Format : AVC
Format/Info : Advanced Video Codec
Format profile : High@L4
Format settings : CABAC / 5 Ref Frames
Format settings, CABAC : Yes
Format settings, Reference : 5 frames
Codec ID : V_MPEG4/ISO/AVC
Duration : 1 h 33 min
Bit rate : 4 459 kb/s
Width : 1 920 pixels
Height : 804 pixels
Display aspect ratio : 2.40:1
Frame rate mode : Constant
Frame rate : 25.000 FPS
Color space : YUV
Chroma subsampling : 4:2:0
Bit depth : 8 bits
Scan type : Progressive
Bits/(Pixel*Frame) : 0.116
Stream size : 2.92 GiB (90%)
Title : OCTAGONE_2020_WEB-DL_1080p-BLUEBIRD
Language : English
Default : Yes
Forced : No
Color range : Limited
Color primaries : BT.709
Transfer characteristics : BT.709
Matrix coefficients : BT.709
Duration_Source : General_Duration

Audio
ID : 2
Format : AC-3
Format/Info : Audio Coding 3
Commercial name : Dolby Digital
Codec ID : A_AC3
Duration : 1 h 33 min
Bit rate mode : Constant
Bit rate : 384 kb/s
Channel(s) : 6 channels
Channel layout : L R C LFE Ls Rs
Sampling rate : 48.0 kHz
Frame rate : 31.250 FPS (1536 SPF)
Compression mode : Lossy
Delay relative to video : -40 ms
Stream size : 258 MiB (8%)
Title : [DUB] DD 5.1 @ 384 kbps (iTunes)
Language : Russian
Service kind : Complete Main
Default : Yes
Forced : No
Duration_Source : General_Duration

Text
ID : 3
Format : UTF-8
Codec ID : S_TEXT/UTF8
Codec ID/Info : UTF-8 Plain Text
Title : Full-length
Language : Russian
Default : Yes
Forced : No

Menu
00:00:00.000 : en:Глава 1
00:03:43.120 : en:Глава 2
00:13:31.040 : en:Глава 3
00:18:59.280 : en:Глава 4
00:24:35.800 : en:Глава 5
00:32:24.920 : en:Глава 6
00:38:30.160 : en:Глава 7
00:43:48.040 : en:Глава 8
00:52:18.000 : en:Глава 9
01:00:04.240 : en:Глава 10
01:09:58.600 : en:Глава 11
01:19:32.440 : en:Глава 12
01:29:30.120 : en:Глава 13
скриншот  скриншот  скриншот  
pb.wtf



Скачать Октагон: Боец vs Рестлер через торрент https://i114.fastpic.ru/big/2020/1112/71/5aa033791435f031ad6e38252d87ed71.jpg Скачать фильм Октагон: Боец vs Рестлер через торрент бесплантно в хорошем качестве О фильме:Рисс – величайший чемпион ММА и легенда октагона. Оказаться с ним в одной клетке – все равно что поставить себя под ядерный удар. ... 10 10 2
Торрент: Зарегистрирован [2020-11-12 15:57] · скачан: 77 раз
Статус: √ проверено
Размер: 3.24 GB
Как cкачать? Как скачать Октагон: Боец vs Рестлер через торрент | qTorrent

% Раздел Тема Автор DL S | L
Фильмы [HD 720p, 1080p] (Хороший звук DUB, MVO) [ 13.23 GB ] Октагон: Боец vs Рестлер / Cagefighter [2020 BDRip 1080p] bober100 Скачать
7 | 0
Фильмы 2019-2020 [DVDrip, WEB-DLRip, HDrip] (DUB, MVO) [ 713 MB ] Октагон: Боец vs Рестлер / Cagefighter [2020 WEB-DLRip ""] coc900 Скачать
6 | 0
Фильмы 2019-2020 [DVDrip, WEB-DLRip, HDrip] (DUB, MVO) [ 1.46 GB ] Октагон: Боец vs Рестлер / Cagefighter [2020 HDRip] bober100 Скачать
5 | 0

28-11-2019 20:33  

Отключить всю рекламу на сайте

    Дорогой пользователь! Огромная просьба, поблагодарите релизера, оцените раздачу и оставьте свои комментарий, если Вы скачали Октагон: Боец vs Рестлер через торрент бесплатно! Внесите свою лепту в развитие PiratBit!
    Комментировать посты могут только пользователи прошедшие не сложную регистрацию
    Показать сообщения:    

    Октагон: Боец vs Рестлер через торрент
    Скачать бесплатно Октагон: Боец vs Рестлер
    Октагон: Боец vs Рестлер скачать торрент
    Октагон: Боец vs Рестлер смотреть онлайн
    Cкачать фильм Октагон: Боец vs Рестлер бесплатно
    Октагон: Боец vs Рестлер скачать торрент в хорошем качестве
    Октагон: Боец vs Рестлер смотреть онлайн бесплатно в хорошем качестве


    Вы не можете начинать темы
    Вы не можете отвечать на сообщения
    Вы не можете редактировать свои сообщения
    Вы не можете удалять свои сообщения
    Вы не можете голосовать в опросах
    Вы не можете прикреплять файлы к сообщениям
    Вы можете скачивать файлы