Лицензия

MVO

1

1 сезон

Лицензия

Лицензия

13

MVO

1 сезон

Deluxe Edition

pack

Рекомендуем

30

Repack

ВАЖНО

ВАЖНО

Ghostwire

RePack

jed

RePack

fifa19

RePack

RDR2

RePack

NEED FOR SPEED™ PAYBACK

RePack

Кинопоиск HD

 Острые козырьки 6 сезон

6 сезон

FAR CRY 6

RePack

Лицензия

MVO

1

1 сезон

1 сезон

Лицензия

  

Мулан / Mulan (Ники Каро) [2020, Боевик, фэнтези, драма, BDRip 1080p] DUB [iTunes]

Мулан через торрент pb.wtf

Размер: 11.39 GB | Добавлен: 1 год 10 мес. назад | Торрент скачан:892 раза
Смотреть онлайн Мулан | Скачать   

13-11-2020 03:58 Мулан Скачать торрент  

Мулан | Mulan
Год выпуска: 2020
Страна: США, Китай, Канада
Выпущено: Walt Disney Pictures, Jason T. Reed Productions, Good Fear Content
Жанр: Боевик, фэнтези, драма
Продолжительность: 01:55:11
Перевод: Дублированный | iTunes
Субтитры: Русские (Forced, 2 x full), английские

Режиссер: Ники Каро

rating

В ролях: Лю Ифэй, Донни Йен, Гун Ли, Джет Ли, Джейсон Скотт Ли, Йосон Ань, Ма Ци, Розалинд Чао, Чжэн Пэйпэй, Сюзанна Тан

Описание: Изданный императором Китая указ о призыве на службу в армии одного мужчины из каждой семьи для защиты страны от северных захватчиков вдохновляет Мулан, старшую дочь почетного воина, занять в войсках место больного отца. Маскируясь под мужчину, девушка подвергается испытаниям на каждом шагу, проявляя свои внутреннюю силу и истинный потенциал. Мулан ждет эпичное путешествие, которое превратит её в доблестного воина, позволит заслужить уважение народа и стать гордостью отца.

Качество: BDRip 1080p
Формат: MKV

Видео: MPEG-4 AVC, 1920x804, 13.1 Mbit/s, 23.976 fps
Аудио#1: 48 kHz, AC3, 5.1, 384 Kbps | iTunes | RUS |
Аудио#2: 48 kHz, AC3, 5.1, 640 Kbps | Оригинал | ENG |
скриншот  скриншот  скриншот  скриншот  скриншот  

General
Unique ID : 339200792393234960314682298580499999329 (0xFF2FB242396476F44372BEBB241CAA61)
Complete name : D:Video111Mulan.2020.BDRip.1080p.seleZen.mkv
Format : Matroska
Format version : Version 4
File size : 11.4 GiB
Duration : 1 h 55 min
Overall bit rate : 14.2 Mb/s
Movie name : Mulan 2020 from seleZen
Encoded date : UTC 2020-11-12 21:24:30
Writing application : mkvmerge v40.0.0 ('Old Town Road + Pony') 64-bit
Writing library : libebml v1.3.9 + libmatroska v1.5.2

Video
ID : 1
Format : AVC
Format/Info : Advanced Video Codec
Format profile : [email protected]
Format settings : CABAC / 5 Ref Frames
Format settings, CABAC : Yes
Format settings, Reference : 5 frames
Codec ID : V_MPEG4/ISO/AVC
Duration : 1 h 55 min
Bit rate : 13.1 Mb/s
Width : 1 920 pixels
Height : 804 pixels
Display aspect ratio : 2.40:1
Frame rate mode : Constant
Frame rate : 23.976 (24000/1001) FPS
Color space : YUV
Chroma subsampling : 4:2:0
Bit depth : 8 bits
Scan type : Progressive
Bits/(Pixel*Frame) : 0.355
Stream size : 10.6 GiB (93%)
Title : playHD
Writing library : x264 core 146 r2538 121396c
Encoding settings : cabac=1 / ref=5 / deblock=1:-3:-3 / analyse=0x3:0x133 / me=umh / subme=10 / psy=1 / psy_rd=1.00:0.00 / mixed_ref=1 / me_range=32 / chroma_me=1 / trellis=2 / 8x8dct=1 / cqm=0 / deadzone=21,11 / fast_pskip=0 / chroma_qp_offset=-2 / threads=6 / lookahead_threads=1 / sliced_threads=0 / nr=0 / decimate=0 / interlaced=0 / bluray_compat=0 / constrained_intra=0 / bframes=8 / b_pyramid=2 / b_adapt=2 / b_bias=0 / direct=3 / weightb=1 / open_gop=0 / weightp=2 / keyint=250 / keyint_min=23 / scenecut=40 / intra_refresh=0 / rc=crf / mbtree=0 / crf=15.0 / qcomp=0.60 / qpmin=0 / qpmax=69 / qpstep=4 / ip_ratio=1.40 / pb_ratio=1.30 / aq=3:0.80
Language : English
Default : Yes
Forced : No

Audio #1
ID : 2
Format : AC-3
Format/Info : Audio Coding 3
Commercial name : Dolby Digital
Codec ID : A_AC3
Duration : 1 h 55 min
Bit rate mode : Constant
Bit rate : 384 kb/s
Channel(s) : 6 channels
Channel layout : L R C LFE Ls Rs
Sampling rate : 48.0 kHz
Frame rate : 31.250 FPS (1536 SPF)
Compression mode : Lossy
Stream size : 316 MiB (3%)
Title : iTunes
Language : Russian
Service kind : Complete Main
Default : Yes
Forced : Yes

Audio #2
ID : 3
Format : AC-3
Format/Info : Audio Coding 3
Commercial name : Dolby Digital
Codec ID : A_AC3
Duration : 1 h 55 min
Bit rate mode : Constant
Bit rate : 640 kb/s
Channel(s) : 6 channels
Channel layout : L R C LFE Ls Rs
Sampling rate : 48.0 kHz
Frame rate : 31.250 FPS (1536 SPF)
Compression mode : Lossy
Stream size : 527 MiB (5%)
Title : Original
Language : English
Service kind : Complete Main
Default : No
Forced : No

Text #1
ID : 4
Format : UTF-8
Codec ID : S_TEXT/UTF8
Codec ID/Info : UTF-8 Plain Text
Duration : 3 min 8 s
Bit rate : 5 b/s
Count of elements : 2
Stream size : 133 Bytes (0%)
Title : Forced [iTunes]
Language : Russian
Default : Yes
Forced : Yes

Text #2
ID : 5
Format : UTF-8
Codec ID : S_TEXT/UTF8
Codec ID/Info : UTF-8 Plain Text
Duration : 1 h 54 min
Bit rate : 42 b/s
Count of elements : 785
Stream size : 35.9 KiB (0%)
Title : Full [iTunes]
Language : Russian
Default : No
Forced : No

Text #3
ID : 6
Format : UTF-8
Codec ID : S_TEXT/UTF8
Codec ID/Info : UTF-8 Plain Text
Duration : 1 h 44 min
Bit rate : 51 b/s
Count of elements : 850
Stream size : 39.0 KiB (0%)
Title : Full [Focs]
Language : Russian
Default : No
Forced : No

Text #4
ID : 7
Format : UTF-8
Codec ID : S_TEXT/UTF8
Codec ID/Info : UTF-8 Plain Text
Duration : 1 h 50 min
Bit rate : 30 b/s
Count of elements : 923
Stream size : 24.6 KiB (0%)
Title : Full
Language : English
Default : No
Forced : No

Text #5
ID : 8
Format : UTF-8
Codec ID : S_TEXT/UTF8
Codec ID/Info : UTF-8 Plain Text
Duration : 1 h 50 min
Bit rate : 36 b/s
Count of elements : 1150
Stream size : 29.6 KiB (0%)
Title : SDH
Language : English
Default : No
Forced : No

Menu
00:00:00.000 : en:Chapter 01
00:04:44.117 : en:Chapter 02
00:06:26.469 : en:Chapter 03
00:09:29.152 : en:Chapter 04
00:13:27.223 : en:Chapter 05
00:20:51.584 : en:Chapter 06
00:26:33.675 : en:Chapter 07
00:29:03.992 : en:Chapter 08
00:36:48.832 : en:Chapter 09
00:41:41.708 : en:Chapter 10
00:50:45.668 : en:Chapter 11
00:57:19.061 : en:Chapter 12
01:01:13.336 : en:Chapter 13
01:11:22.820 : en:Chapter 14
01:16:34.924 : en:Chapter 15
01:22:11.552 : en:Chapter 16
01:29:59.060 : en:Chapter 17
01:34:59.819 : en:Chapter 18
01:38:52.385 : en:Chapter 19
01:44:40.399 : en:Chapter 20




Скачать Мулан через торрент https://a.radikal.ru/a21/2011/d6/4a6483ca17b5.jpg Скачать, смотреть онлайн Мулан бесплантно в хорошем качестве Описание: Изданный императором Китая указ о призыве на службу в армии одного мужчины из каждой семьи для защиты страны от северных ... 10 10 20
Info! Золотая раздача, скачанное не засчитывается.
Торрент: Зарегистрирован [2020-11-13 03:58] · скачан: 892 раз
Статус: √ проверено
Размер: 11.39 GB
Как cкачать? Как скачать Мулан через торрент | UTorrent

% Раздел Тема Автор DL S | L
Ultra HD (UHD: 2K, 4K, 8K) [ 48.64 GB ] Мулан / Mulan | iTunes | 2160p bober100 Скачать
2 | 0
Фильмы 2019-2020 [DVDrip, WEB-DLRip, HDrip] (DUB, MVO) [ 752 MB ] Мулан / Mulan | iTunes | HDRip bober100 Скачать
1 | 0
Фильмы 2019-2020 [DVDrip, WEB-DLRip, HDrip] (DUB, MVO) [ 2.13 GB ] Мулан / Mulan | Лицензия | BDRip от Twi7ter Twi7ter Скачать
87 | 2
Фильмы 2019-2020 [DVDrip, WEB-DLRip, HDrip] (DUB, MVO) [ 1.41 GB ] Мулан / Mulan | Лицензия | BDRip от Twi7ter Twi7ter Скачать
4 | 0
Фильмы 2019-2020 [DVDrip, WEB-DLRip, HDrip] (DUB, MVO) [ 2.13 GB ] Мулан / Mulan | iTunes | BDRip bober100 Скачать
1 | 0
Фильмы 2019-2020 [DVDrip, WEB-DLRip, HDrip] (DUB, MVO) [ 1.41 GB ] Мулан / Mulan | iTunes | BDRip bober100 Скачать
1 | 0
Фильмы (Blu-ray, BD-Remux, HDDVD) [ 30.39 GB ] Мулан / Mulan | iTunes | BD Remux 1080p bober100 Скачать
2 | 0

28-11-2019 20:33  

Отключить вcю реклaмy на сайте

01-12-2020 17:48 Мулан Скачать торрент  

Отличный фильм.



    Дорогой пользователь! Огромная просьба, поблагодарите релизера, оцените раздачу и оставьте свои комментарий, если Вы скачали Мулан через торрент бесплатно!!
    Комментировать посты могут только пользователи прошедшие не сложную регистрацию
    Показать сообщения:    


    Мулан через торрент
    Скачать бесплатно Мулан
    Мулан скачать торрент
    Мулан смотреть онлайн
    Cкачать фильм Мулан бесплатно
    Мулан скачать торрент в хорошем качестве
    Мулан смотреть онлайн бесплатно в хорошем качестве
    Вы не можете начинать темы
    Вы не можете отвечать на сообщения
    Вы не можете редактировать свои сообщения
    Вы не можете удалять свои сообщения
    Вы не можете голосовать в опросах
    Вы не можете прикреплять файлы к сообщениям
    Вы можете скачивать файлы