Всегда рабочее зеркало без VPN и Proxy просто перед .vidak.icu напиши любое слово или цифру, Пример http://7qdx.vidak.icu

MVO

Лицензия

1 сезон

1

1 сезон

iTunes

1 сезон

13

1 сезон

Deluxe

pack

Рекомендуем

Repack

30

ВАЖНО

RePack

MK11

RePack

jed

RePack

fifa19

RePack

RDR2

RePack

NEED FOR SPEED™ PAYBACK

Кинопоиск HD

6 сезон

 Острые козырьки 6 сезон

Все сериалы

все сериалы на PB.wtf

RePack

FAR CRY 5
  
Magnet ссылка

По законам военного времени. Победа / Сезон: 4 / Серии: 1-8 из 8 (Максим Мехеда) [2020, Военный, драма, история, WEB-DLRip] pb.wtf

По законам военного времени. Победа через торрент pb.wtf

Размер: 4.97 GB | Добавлен: 1 год 2 мес. назад | Торрент скачан:385 раз
Смотреть онлайн По законам военного времени. Победа | Скачать    Ребята, помогите собрать деньги на оплату серверов!!!

13-11-2020 21:06 По законам военного времени. Победа Скачать торрент  

По законам военного времени. Победа
Год выпуска: 2020
Страна: Россия
Студия: Кинокомпания "Star Media"
Жанр: Военный, драма, история
Продолжительность: ~ 00:48:00
Субтитры: отсутствуют

Режиссер: Максим Мехеда



В ролях: Екатерина Климова, Евгений Воловенко, Александр Панкратов-Чёрный, Янина Колесниченко, Александр Дуденков, Анатолий Кот, Григорий Анурин, Ольга Белинская, Александр Песков, Пётр Черняев, Степан Старчиков, Евгений Березовский, Николай Качура, Матвей Черных, Андрей Арзяев, Андрей Балякин, Андрей Пискарёв, Михаил Калиничев, Николай Юшкевич, Антон Морозов (II), Людмила Светлова, Сергей Апрельский, Дмитрий Смирнов (VII)

Описание: 9 мая 1945 года. На площади маленького городка Инстербурга в Восточной Пруссии этот день встречают Рокотов, Елагина и Федоренко. Они ликуют вместе со всеми бойцами Красной Армии. Война кончилась! Горожане жмутся к домам – кто-то из них плачет, а кто-то вздыхает с облегчением. На площади тут же возникает импровизированная танцплощадка, молодой лейтенант играет на пианино прямо в центре площади. Все переворачивается в один миг, когда с крыши одного из домов по площади начинает стрелять пулемет… А потом… Потом начинаются будни военной прокуратуры на оккупированной территории – убийства, ограбления, кражи. И конечно, немецкая агентура, сменившая хозяев, но не сменившая врага. И порой кажется, что война еще не кончилась. Что для окончательной победы надо сделать еще один шаг, а потом еще один, и еще…

Качество: WEB-DLRip
Формат: AVI

Видео: XviD, ~ 1600 Кбит/с, 720x400, 25 кадр/с
Аудио: 48.0 kHz, AC3 Dolby Digital, 2/0 (L,R) ch, ~ 192 kbps
скриншот  скриншот  скриншот  скриншот  скриншот  

General
Complete name : H:\fiiles x\По законам военного времени. Победа.2020.WEB-DLRip.Files-x\01. По законам военного времени. Победа.2020.WEB-DLRip.Files-x.avi
Format : AVI
Format/Info : Audio Video Interleave
File size : 629 MiB
Duration : 48mn 49s
Overall bit rate : 1 801 Kbps
Writing application : VirtualDubMod 1.5.10.3 | www.virtualdub-fr.org || (build 2550/release)
Writing library : VirtualDubMod build 2550/release

Video
ID : 0
Format : MPEG-4 Visual
Format profile : Advanced [email protected]
Format settings, BVOP : 1
Format settings, QPel : No
Format settings, GMC : No warppoints
Format settings, Matrix : Custom
Codec ID : XVID
Codec ID/Hint : XviD
Duration : 48mn 49s
Bit rate : 1 600 Kbps
Width : 720 pixels
Height : 400 pixels
Display aspect ratio : 16:9
Frame rate : 25.000 fps
Color space : YUV
Chroma subsampling : 4:2:0
Bit depth : 8 bits
Scan type : Progressive
Compression mode : Lossy
Bits/(Pixel*Frame) : 0.222
Stream size : 559 MiB (89%)
Writing library : XviD 73

Audio
ID : 1
Format : AC-3
Format/Info : Audio Coding 3
Mode extension : CM (complete main)
Codec ID : 2000
Duration : 48mn 49s
Bit rate mode : Constant
Bit rate : 192 Kbps
Channel(s) : 2 channels
Channel positions : Front: L R
Sampling rate : 48.0 KHz
Bit depth : 16 bits
Compression mode : Lossy
Stream size : 67.1 MiB (11%)
Alignment : Split accross interleaves
Interleave, duration : 40 ms (1.00 video frame)
Interleave, preload duration : 500 ms

Внимание! Раздача ведётся путём добавления новых серий; при каждом добавлении создfётся новый торрент. Чтобы начать докачку новой серии, пользователям необходимо сделать следующее: (1) остановить скачивание, (2) удалить старый торрент у себя из клиента (старые серии удалять не надо), (3) скачать новый торрент и запустить его у себя в клиенте вместо старого, при этом указать клиенту путь в старую папку куда и должно происходить скачивание новых серий.

Ваш клиент при этом должен произвести хеширование (проверку) старой папки (если не производит сам - помогите ему сделать это), и будет докачивать только те серии которых у вас ещё нет. Старые серии при этом не удаляются, а продолжают раздаваться!

Eсли вы уже удалили старые серии, то предотвратить повторную закачку старых серий можно, отжав галочку в соответсвующих местах при запуске нового торрента.
pb.wtf



Скачать По законам военного времени. Победа через торрент http://c.radikal.ru/c39/2011/93/d5d34990017e.jpg Скачать, смотреть онлайн По законам военного времени. Победа бесплантно в хорошем качестве Описание: 9 мая 1945 года. На площади маленького городка Инстербурга в Восточной Пруссии этот день встречают Рокотов, Елагина и Федоренко. ... 10 10 27
Info! Золотая раздача, скачанное не засчитывается.
Торрент: Зарегистрирован [2021-05-04 23:02] · скачан: 385 раз
Статус: √ проверено
Размер: 4.97 GB
Как cкачать? Как скачать По законам военного времени. Победа через торрент | UTorrent

% Раздел Тема Автор DL S | L
Наши сериалы [ 4.95 GB ] По законам военного времени. Победа / Сезон: 4 / Серии: 1-8 из 8 [2020 Военный история WEB-DLRip-AVC] bober100 Скачать
1 | 0


Последний раз редактировалось: bober100 (2021-05-02 05:42), всего редактировалось 1 раз

28-11-2019 20:33  

Отключить всю рекламу на сайте

01-05-2021 15:18 По законам военного времени. Победа Скачать торрент  

снимали в нашем городе

скриншот   скриншот   скриншот   скриншот  pb.wtf



05-05-2021 00:17 По законам военного времени. Победа Скачать торрент  

нормально смотрелось.но глянул давно уже.pb.wtf



05-05-2021 06:48 По законам военного времени. Победа Скачать торрент  

Леонид Ильич писал(а):

снимали в нашем городе

скриншот   скриншот   скриншот   скриншот  

Из Гумбиннена привет!:)pb.wtf



    Дорогой пользователь! Огромная просьба, поблагодарите релизера, оцените раздачу и оставьте свои комментарий, если Вы скачали По законам военного времени. Победа через торрент бесплатно!
    Комментировать посты могут только пользователи прошедшие не сложную регистрацию
    Показать сообщения:    

    По законам военного времени. Победа через торрент
    Скачать бесплатно По законам военного времени. Победа
    По законам военного времени. Победа скачать торрент
    По законам военного времени. Победа смотреть онлайн
    Cкачать фильм По законам военного времени. Победа бесплатно
    По законам военного времени. Победа скачать торрент в хорошем качестве
    По законам военного времени. Победа смотреть онлайн бесплатно в хорошем качестве


    Вы не можете начинать темы
    Вы не можете отвечать на сообщения
    Вы не можете редактировать свои сообщения
    Вы не можете удалять свои сообщения
    Вы не можете голосовать в опросах
    Вы не можете прикреплять файлы к сообщениям
    Вы можете скачивать файлы