Ссылка на приватное зеркало нашего сайта всего за 1$. Внимание количество ограничено!!!

2 сезон

iTunes

1 сезон

1

2 сезон

2 сезон

iTunes

1 сезон

RePack

30

Ultimate

ВАЖНО

ИГРА 18+

pack

RePack

MK11
pack

Забери бонус

RePack

jed

!!Акция!!

Alien_Rage

RePack

fifa19

RePack

Assassins Creed: Odyssey

RePack

NEED FOR SPEED™ PAYBACK

4 сезон

9 сезон

Бесстыжие 9 сезон

Все сериалы

все сериалы на PB.wtf

RePack

FAR CRY 5
  

Как создать девушку / How to Build a Girl (Коки Гидройч) [2019, Комедия, BD Remux 1080p] DUB pb.wtf

Как создать девушку через торрент pb.wtf

Раздают: 1 [ 0 KB/s ]
Размер: 19.9 GB | Добавлен: 14 д. назад | Торрент скачан:8 раз
Скачать  

14-11-2020 02:34 Как создать девушку Скачать торрент  

Как создать девушку | How to Build a Girl
Год выпуска: 2019
Страна: Великобритания
Студия: Film4, Lionsgate UK, Monumental Pictures
Жанр: Комедия
Продолжительность: 01:43:52
Перевод: Дублированный |
Субтитры: Английские

Режиссер: Коки Гидройч

rating

В ролях: Эмма Томпсон, Люси Панч, Джамила Джамил, Бини Фелдштейн, Пэдди Консидайн, Крис О`Дауд, Элфи Оуэн-Аллен, Фрэнк Диллэйн, Шэрон Хорган, Сара Солемани

Описание: Упрямая 16-летняя девушка с высоким интеллектом и лишним весом Джоанна мечтает вырваться из своего маленького городка и помочь своим бедным родителям. Открыв в себе журналистские способности, Джоанна становится известным музыкальным критиком начала 1990-х. Она придумывает себе новое имя и новую судьбу, но становится ли она тем человеком, каким хотела?

Качество: BD Remux 1080p
Формат: MKV

Видео: MPEG-4 AVC, 1920x1080, 25.0 Mbit/s, 24.000 fps
Аудио#1: 48 kHz, AC3, 5.1, 384 Kbps | Дублированный | RUS |
Аудио#2: 48 kHz, DTS-HD MA, 5.1, 2058 Kbps | Оригинал | ENG |
скриншот  скриншот  скриншот  скриншот  скриншот  

General
Unique ID : 134271770862474012681353370680942633227 (0x6503CD6B54C906E1EC110F8D9A23A10B)
Complete name : D:Video111How.to.Build.a.Girl.2019.BDREMUX.1080p.seleZen.mkv
Format : Matroska
Format version : Version 4
File size : 19.9 GiB
Duration : 1 h 43 min
Overall bit rate mode : Variable
Overall bit rate : 27.4 Mb/s
Movie name : How to Build a Girl 2019 from seleZen
Encoded date : UTC 2020-11-13 21:05:34
Writing application : mkvmerge v40.0.0 ('Old Town Road + Pony') 64-bit
Writing library : libebml v1.3.9 + libmatroska v1.5.2

Video
ID : 1
Format : AVC
Format/Info : Advanced Video Codec
Format profile : High@L4.1
Format settings : CABAC / 4 Ref Frames
Format settings, CABAC : Yes
Format settings, Reference : 4 frames
Codec ID : V_MPEG4/ISO/AVC
Duration : 1 h 43 min
Bit rate mode : Variable
Bit rate : 25.0 Mb/s
Maximum bit rate : 40.0 Mb/s
Width : 1 920 pixels
Height : 1 080 pixels
Display aspect ratio : 16:9
Frame rate mode : Constant
Frame rate : 24.000 FPS
Color space : YUV
Chroma subsampling : 4:2:0
Bit depth : 8 bits
Scan type : Progressive
Bits/(Pixel*Frame) : 0.502
Stream size : 18.1 GiB (91%)
Language : English
Default : Yes
Forced : No
Color range : Limited
Color primaries : BT.709
Transfer characteristics : BT.709
Matrix coefficients : BT.709

Audio #1
ID : 2
Format : AC-3
Format/Info : Audio Coding 3
Commercial name : Dolby Digital
Codec ID : A_AC3
Duration : 1 h 43 min
Bit rate mode : Constant
Bit rate : 384 kb/s
Channel(s) : 6 channels
Channel layout : L R C LFE Ls Rs
Sampling rate : 48.0 kHz
Frame rate : 31.250 FPS (1536 SPF)
Compression mode : Lossy
Stream size : 285 MiB (1%)
Title : Dub
Language : Russian
Service kind : Complete Main
Default : Yes
Forced : Yes

Audio #2
ID : 3
Format : DTS XLL
Format/Info : Digital Theater Systems
Commercial name : DTS-HD Master Audio
Codec ID : A_DTS
Duration : 1 h 43 min
Bit rate mode : Variable
Bit rate : 2 058 kb/s
Channel(s) : 6 channels
Channel layout : C L R Ls Rs LFE
Sampling rate : 48.0 kHz
Frame rate : 93.750 FPS (512 SPF)
Bit depth : 16 bits
Compression mode : Lossless
Stream size : 1.49 GiB (8%)
Title : Original
Language : English
Default : No
Forced : No

Text
ID : 4
Format : UTF-8
Codec ID : S_TEXT/UTF8
Codec ID/Info : UTF-8 Plain Text
Duration : 1 h 38 min
Bit rate : 62 b/s
Count of elements : 1487
Stream size : 45.4 KiB (0%)
Language : English
Default : No
Forced : No

Menu
00:00:00.000 : en:1. Opening Credits
00:09:17.250 : en:2. Starring Role
00:19:29.833 : en:3. Are You Dying?
00:25:53.917 : en:4. Rebel Girl
00:37:06.833 : en:5. I'm High On My Life
00:45:08.875 : en:6. Proper Question
00:54:13.792 : en:7. Waiting For A Call
01:04:05.292 : en:8. There's Been A Development
01:11:38.208 : en:9. One True Thing
01:21:55.750 : en:10. Is This Home?
01:29:50.500 : en:11. Speak, Feel, Breathe, Live
01:39:32.583 : en:12. End Credits

pb.wtf



Скачать Как создать девушку через торрент https://i114.fastpic.ru/big/2020/1114/9c/93dc3119297d6a656dbeeef751bcc69c.jpg Скачать фильм Как создать девушку через торрент бесплантно в хорошем качестве Описание: Упрямая 16-летняя девушка с высоким интеллектом и лишним весом Джоанна мечтает вырваться из своего маленького городка и помочь ... 10 10 3
Торрент: Зарегистрирован [2020-11-14 02:34] · скачан: 8 раз
Статус: √ проверено
Размер: 19.9 GB
Как cкачать? Как скачать Как создать девушку через торрент | qTorrent

% Раздел Тема Автор DL S | L
Фильмы 2019-2020 [DVDrip, WEB-DLRip, HDrip] (DUB, MVO) [ 1.41 GB ] Как создать девушку / How to Build a Girl [2019 BDRip] DUB Twi7ter Скачать
6 | 0
T Фильмы 2019-2020 [DVDrip, WEB-DLRip, HDrip] (DUB, MVO) [ 1.46 GB ] Как создать девушку / How to Build a Girl [2019 BDRip] DUB bober100 Скачать
2 | 0
Фильмы [HD 720p, 1080p] (Хороший звук DUB, MVO) [ 11.68 GB ] Как создать девушку / How to Build a Girl [2019 BDRip 1080p] DUB bober100 Скачать
6 | 0
Фильмы [HD 720p, 1080p] (Хороший звук DUB, MVO) [ 5.61 GB ] Как создать девушку / How to Build a Girl [2019 BDRip 720p] DUB bober100 Скачать
3 | 0

28-11-2019 20:33  

Отключить всю рекламу на сайте

    Дорогой пользователь! Огромная просьба, поблагодарите релизера, оцените раздачу и оставьте свои комментарий, если Вы скачали Как создать девушку через торрент бесплатно! Внесите свою лепту в развитие PiratBit!
    Комментировать посты могут только пользователи прошедшие не сложную регистрацию
    Показать сообщения:    

    Как создать девушку через торрент
    Скачать бесплатно Как создать девушку
    Как создать девушку скачать торрент
    Как создать девушку смотреть онлайн
    Cкачать фильм Как создать девушку бесплатно
    Как создать девушку скачать торрент в хорошем качестве
    Как создать девушку смотреть онлайн бесплатно в хорошем качестве


    Вы не можете начинать темы
    Вы не можете отвечать на сообщения
    Вы не можете редактировать свои сообщения
    Вы не можете удалять свои сообщения
    Вы не можете голосовать в опросах
    Вы не можете прикреплять файлы к сообщениям
    Вы можете скачивать файлы