Ссылка на приватное зеркало нашего сайта всего за 1$. Внимание количество ограничено!!!

2 сезон

iTunes

1 сезон

1

2 сезон

2 сезон

iTunes

1 сезон

RePack

30

Ultimate

ВАЖНО

ИГРА 18+

pack

RePack

MK11
pack

Забери бонус

RePack

jed

!!Акция!!

Alien_Rage

RePack

fifa19

RePack

Assassins Creed: Odyssey

RePack

NEED FOR SPEED™ PAYBACK

4 сезон

9 сезон

Бесстыжие 9 сезон

Все сериалы

все сериалы на PB.wtf

RePack

FAR CRY 5
  

Гномы в деле! / Die Heinzels - Rückkehr der Heinzelmännchen (Уте фон Мюнхов-Поль) [2020, фэнтези, боевик, комедия, семейный, BDRip 720p] DUB [iTunes] pb.wtf

Гномы в деле! через торрент pb.wtf

Раздают: 6 [ 181 KB/s ] Качают: 1 [ 0 KB/s ]
Размер: 2.7 GB | Добавлен: 12 д. назад | Торрент скачан:82 раза
Скачать  

14-11-2020 07:24 Гномы в деле! Скачать торрент  

Гномы в деле! | Die Heinzels - Rückkehr der Heinzelmännchen
Год выпуска: 2020
Страна: Германия
Выпущено: Akkord Film Produktion GmbH, TOBIS Film, Zweites Deutsches Fernsehen
Жанр: фэнтези, боевик, комедия, семейный
Продолжительность: 01:17:40
Перевод: Дублированный | iTunes
Субтитры: Английские

Режиссер: Уте фон Мюнхов-Поль

rating

В ролях: Йелла Хаазе, Луис Хофманн, Леон Сидел, Детлеф Бирштедт, Эльке Хайденрайх, Рольф Берг, Ранджа Боналана, Мария-Луиза Марьян, Билл Мокридж

Описание: Кондитерская Тео вот-вот закроется. Всех клиентов переманил его главный конкурент Бруно, построивший рядом фабрику. Спасти Тео может только чудо. И оно случается, да не одно, а целых три! Прямо к нему домой заявляются три гнома, которые объясняют, что больше всего на свете хотели бы научиться печь. Недоверчивый Тео поначалу пытается прогнать маленький озорников, но не тут-то было. Ты их в дверь, а они в окно! Тео ничего не остается, как дать им шанс. Успеет ли Тео научить всему гномов, чтобы с их помощью отстоять кондитерскую?

Качество: BDRip 720p
Формат: MKV

Видео: MPEG-4 AVC, 1280x690, 4000 Кbit/s, 23.976 fps
Аудио#1: 48 kHz, AC3, 5.1, 384 Kbps | Дублированный | RUS |
Аудио#2: 48 kHz, AC3, 5.1, 640 Kbps | Оригинал | GER |
скриншот  скриншот  скриншот  скриншот  скриншот  

General
Unique ID : 93216880325784787820601217168973127656 (0x4620EB0987E4EF4C1BB8361F97B25FE8)
Complete name : D:Video111Die.Heinzels.Ruckkehr.der.Heinzelmannchen.BDRip.720p.seleZen.mkv
Format : Matroska
Format version : Version 4
File size : 2.70 GiB
Duration : 1 h 17 min
Overall bit rate : 4 965 kb/s
Movie name : Die Heinzels - Rückkehr der Heinzelmännchen 2020 from seleZen
Encoded date : UTC 2020-11-14 05:22:41
Writing application : mkvmerge v40.0.0 ('Old Town Road + Pony') 64-bit
Writing library : libebml v1.3.9 + libmatroska v1.5.2

Video
ID : 1
Format : AVC
Format/Info : Advanced Video Codec
Format profile : High@L4.1
Format settings : CABAC / 9 Ref Frames
Format settings, CABAC : Yes
Format settings, Reference : 9 frames
Codec ID : V_MPEG4/ISO/AVC
Duration : 1 h 17 min
Bit rate : 4 000 kb/s
Width : 1 280 pixels
Height : 690 pixels
Display aspect ratio : 1.85:1
Frame rate mode : Constant
Frame rate : 23.976 (24000/1001) FPS
Color space : YUV
Chroma subsampling : 4:2:0
Bit depth : 8 bits
Scan type : Progressive
Bits/(Pixel*Frame) : 0.189
Stream size : 2.14 GiB (79%)
Title : Encoded by seleZen
Writing library : x264 core 157 r2935 545de2f
Encoding settings : cabac=1 / ref=9 / deblock=1:-2:-2 / analyse=0x3:0x133 / me=umh / subme=10 / psy=1 / psy_rd=1.00:0.00 / mixed_ref=1 / me_range=32 / chroma_me=1 / trellis=2 / 8x8dct=1 / cqm=0 / deadzone=21,11 / fast_pskip=0 / chroma_qp_offset=-2 / threads=22 / lookahead_threads=3 / sliced_threads=0 / nr=0 / decimate=0 / interlaced=0 / bluray_compat=0 / constrained_intra=0 / bframes=8 / b_pyramid=2 / b_adapt=2 / b_bias=0 / direct=3 / weightb=1 / open_gop=0 / weightp=2 / keyint=240 / keyint_min=24 / scenecut=40 / intra_refresh=0 / rc_lookahead=40 / rc=2pass / mbtree=0 / bitrate=4000 / ratetol=1.0 / qcomp=0.60 / qpmin=0 / qpmax=51 / qpstep=4 / cplxblur=20.0 / qblur=0.5 / vbv_maxrate=50000 / vbv_bufsize=62500 / nal_hrd=none / filler=0 / ip_ratio=1.40 / pb_ratio=1.30 / aq=1:1.00
Language : German
Default : Yes
Forced : No
Color range : Limited
Color primaries : BT.709
Transfer characteristics : BT.709
Matrix coefficients : BT.709

Audio #1
ID : 2
Format : AC-3
Format/Info : Audio Coding 3
Commercial name : Dolby Digital
Codec ID : A_AC3
Duration : 1 h 17 min
Bit rate mode : Constant
Bit rate : 384 kb/s
Channel(s) : 6 channels
Channel layout : L R C LFE Ls Rs
Sampling rate : 48.0 kHz
Frame rate : 31.250 FPS (1536 SPF)
Compression mode : Lossy
Stream size : 214 MiB (8%)
Title : iTunes
Language : Russian
Service kind : Complete Main
Default : Yes
Forced : Yes

Audio #2
ID : 3
Format : AC-3
Format/Info : Audio Coding 3
Commercial name : Dolby Digital
Codec ID : A_AC3
Duration : 1 h 17 min
Bit rate mode : Constant
Bit rate : 640 kb/s
Channel(s) : 6 channels
Channel layout : L R C LFE Ls Rs
Sampling rate : 48.0 kHz
Frame rate : 31.250 FPS (1536 SPF)
Compression mode : Lossy
Stream size : 356 MiB (13%)
Title : Original
Language : German
Service kind : Complete Main
Default : No
Forced : No

Text
ID : 4
Format : UTF-8
Codec ID : S_TEXT/UTF8
Codec ID/Info : UTF-8 Plain Text
Duration : 1 h 12 min
Bit rate : 52 b/s
Count of elements : 1015
Stream size : 27.5 KiB (0%)
Language : English
Default : No
Forced : No

Menu
00:00:00.000 : :Kapitel 01
00:07:29.866 : :Kapitel 02
00:13:31.227 : :Kapitel 03
00:19:46.102 : :Kapitel 04
00:26:17.034 : :Kapitel 05
00:32:40.667 : :Kapitel 06
00:37:15.942 : :Kapitel 07
00:45:30.895 : :Kapitel 08
00:52:58.092 : :Kapitel 09
00:59:34.279 : :Kapitel 10
01:06:44.792 : :Kapitel 11
01:12:09.575 : :Kapitel 12

pb.wtf



Скачать Гномы в деле! через торрент https://i114.fastpic.ru/big/2020/1114/28/e22280bbf1c3626cf54df992c0432328.jpg Скачать фильм Гномы в деле! через торрент бесплантно в хорошем качестве Описание: Кондитерская Тео вот-вот закроется. Всех клиентов переманил его главный конкурент Бруно, построивший рядом фабрику. Спасти Тео ... 10 10 4
Торрент: Зарегистрирован [2020-11-14 07:24] · скачан: 82 раз
Статус: √ проверено
Размер: 2.7 GB
Как cкачать? Как скачать Гномы в деле! через торрент | qTorrent

% Раздел Тема Автор DL S | L
T Иностранные мультфильмы [ 1.45 GB ] Гномы в деле! / Die Heinzels - Rückkehr der Heinzelmännchen [2020 мультфильм полнометражный HDRip-AVC] от MediaBit Lithuania Скачать
5 | 0
Зарубежные Мультфильмы (BDRip 1080p, 720p, Blu-ray, BD-Remux) [ 5.76 GB ] Гномы в деле! / Die Heinzels - Rückkehr der Heinzelmännchen [2020 BDRip 1080p] bober100 Скачать
7 | 0
Иностранные мультфильмы [ 1.46 GB ] Гномы в деле! / Die Heinzels - Rückkehr der Heinzelmännchen [2020 BDRip] bober100 Скачать
8 | 0

28-11-2019 20:33  

Отключить всю рекламу на сайте

    Дорогой пользователь! Огромная просьба, поблагодарите релизера, оцените раздачу и оставьте свои комментарий, если Вы скачали Гномы в деле! через торрент бесплатно! Внесите свою лепту в развитие PiratBit!
    Комментировать посты могут только пользователи прошедшие не сложную регистрацию
    Показать сообщения:    

    Гномы в деле! через торрент
    Скачать бесплатно Гномы в деле!
    Гномы в деле! скачать торрент
    Гномы в деле! смотреть онлайн
    Cкачать фильм Гномы в деле! бесплатно
    Гномы в деле! скачать торрент в хорошем качестве
    Гномы в деле! смотреть онлайн бесплатно в хорошем качестве


    Вы не можете начинать темы
    Вы не можете отвечать на сообщения
    Вы не можете редактировать свои сообщения
    Вы не можете удалять свои сообщения
    Вы не можете голосовать в опросах
    Вы не можете прикреплять файлы к сообщениям
    Вы можете скачивать файлы