2 сезон

iTunes

MVO

1

2 сезон

iTunes

iTunes

1 сезон

RePack

30

Новинка

ВАЖНО

ИГРА 18+

pack

RePack

MK11
pack

Легкие деньги

RePack

jed

RePack

fifa19

RePack

RDR2

RePack

NEED FOR SPEED™ PAYBACK

4 сезон

9 сезон

Бесстыжие 9 сезон

Все сериалы

все сериалы на PB.wtf

RePack

FAR CRY 5

Anonymous, добрый день, мы не успеваем собрать деньги на оплату серверов за декабрь и январь, помогите нам пожалуйста в это трудное время. В качестве благодарности мы отключим Вам всю рекламу на сайте (укажите свой ник в строку Ваше имя)!

×
  
Magnet ссылка

Человек из стали / Man of Steel (Зак Снайдер) [2013 г., фантастика, фэнтези, боевик, приключения, BDRip 720p / 60 FPS, Дубляж] от R.G. HD-Films pb.wtf

Человек из стали через торрент pb.wtf

Раздают: 5 [ 0 KB/s ]
Размер: 5.43 GB | Добавлен: 2 мес. 6 д. назад | Торрент скачан:96 раз
Скачать  

14-11-2020 15:55 Человек из стали Скачать торрент  

Человек из стали / Man of Steel
Год выпуска: 2013
Страна: США, Канада, Великобритания
Жанр: фантастика, фэнтези, боевик, приключения
Продолжительность: 02:23:03
Перевод: Дубляж
Субтитры: Russian, English

Режиссер: Зак Снайдер

Бюджет: $225 000 000
Премьера в мире: 10 июня 2013

rating

В ролях: Генри Кавилл, Эми Адамс, Майкл Шеннон, Рассел Кроу, Дайан Лэйн, Кевин Костнер, Антье Трауэ, Лоренс Фишбёрн, Кристофер Мелони, Гарри Дж. Ленникс и др.

Описание: Кларк Кент (Кал-Эл) — молодой человек, который чувствует себя чужаком из-за своей невероятной силы. Много лет назад он был отправлен на Землю с развитой планеты Криптон, и теперь задается вопросом: зачем? Воспитанный приемными родителями Мартой и Джонатаном Кентами, Кларк знает: обладать сверхспособностями — значит принимать сложные решения. Но когда человечество более всего нуждается в стабильности, оно подвергается нападению. Сможет ли герой восстановить мир, или воспользуется своей силой для того, чтобы окончательно его разрушить?

Качество: BDRip 720p / 60 FPS
Формат: MKV
Видео кодек: H.264
Аудио кодек: AC3
Видео: x264, 1280 x 536 ( 2,40:1 ), 5051 kbps, 60,000 fps, ( 0.123 bpp)
Аудио#1: Русский, AC-3, 48.0 KHz, 6 ch, 384 Kbps Dub
Релиз от: Автор рипа: slaventi-69
Общее
Уникальный идентификатор : 55222646660167326111472025200694300670 (0x298B7EB087549DE13B3E428E07868FFE)
Полное имя : F:\Man.of.Steel.(2013).BDRip.720p.(60 Fps).mkv
Формат : Matroska
Версия формата : Version 4
Размер файла : 5,43 Гбайт
Продолжительность : 2 ч. 22 м.
Общий поток : 5439 Кбит/сек
Название фильма : Человек из стали / Man of Steel (2013) BDRip 720p (60 Fps)
Дата кодирования : UTC 2020-11-13 15:06:12
Программа кодирования : mkvmerge v35.0.0 ('All The Love In The World') 64-bit
Библиотека кодирования : libebml v1.3.9 + libmatroska v1.5.2

Видео
Идентификатор : 1
Формат : AVC
Формат/Информация : Advanced Video Codec
Профиль формата : High@L4.1
Настройки формата : CABAC / 8 Ref Frames
Параметр CABAC формата : Да
Параметр RefFrames формата : 8 кадров
Идентификатор кодека : V_MPEG4/ISO/AVC
Продолжительность : 2 ч. 22 м.
Битрейт : 5051 Кбит/сек
Ширина : 1280 пикселей
Высота : 536 пикселей
Соотношение сторон : 2,40:1
Режим частоты кадров : Постоянный
Частота кадров : 60,000 кадров/сек
Цветовое пространство : YUV
Субдискретизация насыщенности : 4:2:0
Битовая глубина : 8 бит
Тип развёртки : Прогрессивная
Бит/(Пиксели*Кадры) : 0.123
Размер потока : 5,04 Гбайт (93%)
Заголовок : slaventi-69 ( R.G. HD-Films | 60 fps )
Библиотека кодирования : x264 core 130 r2273 b3065e6
Настройки программы : cabac=1 / ref=8 / deblock=1:0:0 / analyse=0x3:0x113 / me=umh / subme=9 / psy=1 / psy_rd=1.00:0.00 / mixed_ref=1 / me_range=32 / chroma_me=1 / trellis=2 / 8x8dct=1 / cqm=0 / deadzone=21,11 / fast_pskip=1 / chroma_qp_offset=-2 / threads=10 / lookahead_threads=4 / sliced_threads=0 / nr=0 / decimate=1 / interlaced=0 / bluray_compat=0 / constrained_intra=0 / bframes=5 / b_pyramid=2 / b_adapt=2 / b_bias=0 / direct=1 / weightb=1 / open_gop=0 / weightp=2 / keyint=600 / keyint_min=23 / scenecut=40 / intra_refresh=0 / rc=crf / mbtree=0 / crf=20.6 / qcomp=0.60 / qpmin=0 / qpmax=69 / qpstep=4 / ip_ratio=1.40 / pb_ratio=1.30 / aq=1:1.00
Язык : English
Default : Да
Forced : Нет

Аудио
Идентификатор : 2
Формат : AC-3
Формат/Информация : Audio Coding 3
Коммерческое название : Dolby Digital
Идентификатор кодека : A_AC3
Продолжительность : 2 ч. 22 м.
Вид битрейта : Постоянный
Битрейт : 384 Кбит/сек
Каналы : 6 каналов
Channel layout : L R C LFE Ls Rs
Частота : 48,0 КГц
Частота кадров : 31,250 кадров/сек (1536 SPF)
Битовая глубина : 16 бит
Метод сжатия : С потерями
Размер потока : 393 Мбайт (7%)
Заголовок : Dub
Язык : Russian
ServiceKind/String : Complete Main
Default : Да
Forced : Нет

Текст #1
Идентификатор : 3
Формат : UTF-8
Идентификатор кодека : S_TEXT/UTF8
Идентификатор кодека/Информация : UTF-8 Plain Text
Продолжительность : 9 м. 12 с.
Битрейт : 3 бит/сек
ElementCount : 5
Размер потока : 216 байт (0%)
Заголовок : Rus Forced
Язык : Russian
Default : Да
Forced : Нет

Текст #2
Идентификатор : 4
Формат : UTF-8
Идентификатор кодека : S_TEXT/UTF8
Идентификатор кодека/Информация : UTF-8 Plain Text
Продолжительность : 2 ч. 11 м.
Битрейт : 63 бит/сек
ElementCount : 994
Размер потока : 61,1 Кбайт (0%)
Заголовок : Rus
Язык : Russian
Default : Нет
Forced : Нет

Текст #3
Идентификатор : 5
Формат : UTF-8
Идентификатор кодека : S_TEXT/UTF8
Идентификатор кодека/Информация : UTF-8 Plain Text
Продолжительность : 2 ч. 11 м.
Битрейт : 41 бит/сек
ElementCount : 1292
Размер потока : 40,0 Кбайт (0%)
Заголовок : Eng
Язык : English
Default : Нет
Forced : Нет

Просьба к переливающим на другие сайты, в оформлении указывайте пожалуйста авторство группы R.G. HD-Films pb.wtf



Скачать Человек из стали через торрент http://lostpic.net/orig_images/b/9/4/b94bef13fa298c71f73eb7f3080d68a2.jpg Скачать фильм Человек из стали через торрент бесплантно в хорошем качестве Описание: Кларк Кент (Кал-Эл) — молодой человек, который чувствует себя чужаком из-за своей невероятной силы. Много лет назад он был ... 10 10 13
Info! Золотая раздача, скачанное не засчитывается.
Торрент: Зарегистрирован [2020-11-14 15:55] · скачан: 96 раз
Статус: √ проверено
Размер: 5.43 GB
Как cкачать? Как скачать Человек из стали через торрент | UTorrent

28-11-2019 20:33  

Отключить всю рекламу на сайте

14-11-2020 16:35 Человек из стали Скачать торрент  

Chuvackk(5000),
Спасибо за Золото. Смотрите в удовольствие.pb.wtf



    Дорогой пользователь! Огромная просьба, поблагодарите релизера, оцените раздачу и оставьте свои комментарий, если Вы скачали Человек из стали через торрент бесплатно! Внесите свою лепту в развитие PiratBit!
    Комментировать посты могут только пользователи прошедшие не сложную регистрацию
    Показать сообщения:    

    Человек из стали через торрент
    Скачать бесплатно Человек из стали
    Человек из стали скачать торрент
    Человек из стали смотреть онлайн
    Cкачать фильм Человек из стали бесплатно
    Человек из стали скачать торрент в хорошем качестве
    Человек из стали смотреть онлайн бесплатно в хорошем качестве


    Вы не можете начинать темы
    Вы не можете отвечать на сообщения
    Вы не можете редактировать свои сообщения
    Вы не можете удалять свои сообщения
    Вы не можете голосовать в опросах
    Вы не можете прикреплять файлы к сообщениям
    Вы можете скачивать файлы