Ссылка на приватное зеркало нашего сайта всего за 1$. Внимание количество ограничено!!!

2 сезон

iTunes

1 сезон

1

2 сезон

2 сезон

iTunes

1 сезон

RePack

30

Ultimate

ВАЖНО

ИГРА 18+

pack

RePack

MK11
pack

Забери бонус

RePack

jed

!!Акция!!

Alien_Rage

RePack

fifa19

RePack

Assassins Creed: Odyssey

RePack

NEED FOR SPEED™ PAYBACK

4 сезон

9 сезон

Бесстыжие 9 сезон

Все сериалы

все сериалы на PB.wtf

RePack

FAR CRY 5
  

Хроники Нарнии: Трилогия / The Chronicles of Narnia: Trilogy (Майкл Эптид, Эндрю Адамсон) [2005-2010, Фэнтези, приключения,BDRip - HEVC 1080p 10 bit 60 FPS, DUB] pb.wtf

Хроники Нарнии: Трилогия через торрент pb.wtf

Раздают: 1 [ 0 KB/s ]
Размер: 12.8 GB | Добавлен: 11 д. назад | Торрент скачан:9 раз
Скачать  

14-11-2020 20:06 Хроники Нарнии: Трилогия Скачать торрент  



Хроники Нарнии — цикл из семи фэнтезийных повестей, написанных Клайвом Стэйплзом Льюисом. В них рассказывается о приключениях детей в волшебной стране под названием Нарния, где животные могут разговаривать, магия никого не удивляет, а добро борется со злом. «Хроники Нарнии» содержат много намёков на христианские идеи в доступном для юных читателей виде. В дополнение к христианским темам Льюис описывает персонажей, имеющих прообразы в греческой и римской мифологии и в традиционных британских и ирландских сказках, в том числе существуют явные мотивы, близкие к последним.

Серия пользуется огромной популярностью. К 2006 году было продано более 100 миллионов экземпляров книг на 41 языке (Kelly 2006, Guthmann 2005), существуют театральные постановки, радиопостановки, телеэкранизации, киноэкранизации и компьютерные игры.

Иллюстрацией оригинального цикла книг занималась Паулина Бейнс.


Хроники Нарнии Лев, колдунья и волшебный шкаф - The Chronicles of Narnia The Lion, the Witch and the Wardrobe«Начало великой саги»

Год выпуска: 2005
Страна: США, Великобритания
Жанр: фэнтези, приключения, семейный

Продолжительность: 02:22:51
Перевод: Дубляж
Субтитры: русские

Режиссер: Эндрю Адамсон

В ролях: Джорджи Хенли, Скандар Кейнс, Уильям Моусли, Анна Попплуэлл, Тильда Суинтон, Джеймс МакЭвой, Джим Бродбент, Киран Шах, Джеймс Космо, Джуди МакИнтош

Описание:
Четверых детей родители отправляют из Лондона в деревню, к старому профессору — другу семьи. В его доме дети обнаруживают таинственный платяной шкаф, посредством которого они попадают в сказочную страну Нарнию, где обитают фантастические люди, животные и существа. Оказывается, что эта мирная страна находится под властью злой Колдуньи, из-за которой там — вечная зима. Дети должны помочь царю Аслану (Великому Льву, который много столетий назад основал Нарнию) победить Колдунью, разрушить заклинания и освободить жителей Нарнии…

Мировая премьера: 7 декабря 2005


Качество: BDRip 1080p by DD2D3
Формат: MKV
Видео кодек: V_MPEGH/ISO/HEVC
Аудио кодек: AC3
Видео: V_MPEGH/ISO/HEVC; 1920x816 (2.35:1); 4004 Kbps; 59,940 fps; 0,043 bpp
Аудио: русский; AC3; 640 Kbps; CBR; 6 ch
Навигация по главам: есть



General
Unique ID : 212968591809519992997177080596993439552 (0xA0384241E56275DBA3F5F35B43DC7740)
Complete name : D:\The Chronicles of Narnia Trilogy (2005-2010) BDRip - HEVC 1080p 10 bit 60 FPS\The Chronicles of Narnia. The Lion, the Witch and the Wardrobe (2005) BDRip - HEVC 1080p 10 bit 60 FPS.mkv
Format : Matroska
Format version : Version 4
File size : 4.64 GiB
Duration : 2 h 22 min
Overall bit rate : 4 649 kb/s
Movie name : Rip by DD2D3
Encoded date : UTC 2020-11-14 12:25:33
Writing application : mkvmerge v10.0.0 ('To Drown In You') 32bit
Writing library : libebml v1.3.4 + libmatroska v1.4.5
Attachments : poster

Video
ID : 1
Format : HEVC
Format/Info : High Efficiency Video Coding
Format profile : Main 10@L4.1@Main
Codec ID : V_MPEGH/ISO/HEVC
Duration : 2 h 22 min
Bit rate : 4 005 kb/s
Width : 1 920 pixels
Height : 816 pixels
Display aspect ratio : 2.35:1
Frame rate mode : Constant
Frame rate : 59.940 (60000/1001) FPS
Color space : YUV
Chroma subsampling : 4:2:0
Bit depth : 10 bits
Bits/(Pixel*Frame) : 0.043
Stream size : 4.00 GiB (86%)
Writing library : x265 2.3+33-0b7d54dbb71a87a0:[Windows][MSVC 1800][64 bit] 10bit: KG7x [x265.ru]
Encoding settings : cpuid=1173503 / frame-threads=2 / numa-pools=4 / wpp / no-pmode / no-pme / no-psnr / no-ssim / log-level=2 / input-csp=1 / input-res=1920x816 / interlace=0 / total-frames=513783 / level-idc=41 / high-tier=1 / uhd-bd=0 / ref=3 / no-allow-non-conformance / no-repeat-headers / annexb / no-aud / no-hrd / info / hash=0 / no-temporal-layers / open-gop / min-keyint=25 / keyint=250 / bframes=4 / b-adapt=2 / b-pyramid / bframe-bias=0 / rc-lookahead=20 / lookahead-slices=5 / scenecut=40 / no-intra-refresh / ctu=64 / min-cu-size=8 / no-rect / no-amp / max-tu-size=32 / tu-inter-depth=1 / tu-intra-depth=1 / limit-tu=0 / rdoq-level=0 / dynamic-rd=0.00 / no-ssim-rd / signhide / no-tskip / nr-intra=0 / nr-inter=0 / no-constrained-intra / strong-intra-smoothing / max-merge=2 / limit-refs=3 / no-limit-modes / me=1 / subme=2 / merange=57 / temporal-mvp / weightp / no-weightb / no-analyze-src-pics / deblock=0:0 / no-sao / no-sao-non-deblock / rd=3 / no-early-skip / no-rskip / no-fast-intra / no-tskip-fast / no-cu-lossless / no-b-intra / rdpenalty=0 / psy-rd=4.00 / psy-rdoq=0.00 / no-rd-refine / analysis-mode=0 / no-lossless / cbqpoffs=0 / crqpoffs=0 / rc=abr / bitrate=4000 / qcomp=0.60 / qpstep=1 / stats-write=0 / stats-read=2 / cplxblur=20.0 / qblur=0.5 / ipratio=1.10 / pbratio=1.00 / aq-mode=0 / aq-strength=0.00 / no-cutree / zone-count=0 / no-strict-cbr / qg-size=64 / rc-grain / qpmax=69 / qpmin=0 / sar=1 / overscan=0 / videoformat=5 / range=0 / colorprim=2 / transfer=2 / colormatrix=2 / chromaloc=0 / display-window=0 / max-cll=0,0 / min-luma=0 / max-luma=1023 / log2-max-poc-lsb=8 / vui-timing-info / vui-hrd-info / slices=1 / opt-qp-pps / opt-ref-list-length-pps / no-multi-pass-opt-rps / scenecut-bias=0.05 / no-opt-cu-delta-qp / no-aq-motion / no-hdr / no-hdr-opt / refine-level=5 / no-limit-sao
Default : Yes
Forced : No

Audio
ID : 2
Format : AC-3
Format/Info : Audio Coding 3
Commercial name : Dolby Digital
Codec ID : A_AC3
Duration : 2 h 22 min
Bit rate mode : Constant
Bit rate : 640 kb/s
Channel(s) : 6 channels
Channel layout : L R C LFE Ls Rs
Sampling rate : 48.0 kHz
Frame rate : 31.250 FPS (1536 SPF)
Compression mode : Lossy
Stream size : 654 MiB (14%)
Title : RUS.DUB.AC3
Language : Russian
Service kind : Complete Main
Default : Yes
Forced : No

Text
ID : 3
Format : UTF-8
Codec ID : S_TEXT/UTF8
Codec ID/Info : UTF-8 Plain Text
Duration : 2 h 12 min
Bit rate : 43 b/s
Count of elements : 1083
Stream size : 41.9 KiB (0%)
Title : Rus.Subtitles.full
Language : Russian
Default : No
Forced : No

Menu
00:00:00.000 : en:Chapter 00
00:07:07.635 : en:Chapter 01
00:11:15.049 : en:Chapter 02
00:18:23.143 : en:Chapter 03
00:24:34.222 : en:Chapter 04
00:29:45.784 : en:Chapter 05
00:34:55.760 : en:Chapter 06
00:39:29.825 : en:Chapter 07
00:46:50.974 : en:Chapter 08
00:50:23.353 : en:Chapter 09
00:56:43.149 : en:Chapter 10
01:01:15.505 : en:Chapter 11
01:12:16.749 : en:Chapter 12
01:18:57.232 : en:Chapter 13
01:24:36.404 : en:Chapter 14
01:31:49.879 : en:Chapter 15
01:37:41.605 : en:Chapter 16
01:46:13.617 : en:Chapter 17
01:49:13.880 : en:Chapter 18
01:52:39.169 : en:Chapter 19
01:55:00.727 : en:Chapter 20
01:59:29.078 : en:Chapter 21
02:05:30.022 : en:Chapter 22
02:11:34.052 : en:Chapter 23


скриншот   скриншот   скриншот   скриншот  



Хроники Нарнии Принц Каспиан - Chronicles of Narnia The Prince Caspian«Всё, что вы знаете, скоро изменится»

Год выпуска: 2008
Страна: США, Польша, Словения, Чехия, Великобритания
Жанр: фэнтези, приключения, семейный

Продолжительность: 02:29:58
Перевод: Дубляж
Субтитры: русские

Режиссер: Эндрю Адамсон

В ролях: Бен Барнс, Джорджи Хенли, Скандар Кейнс, Уильям Моусли, Анна Попплуэлл, Серджо Кастеллитто, Питер Динклэйдж, Тильда Суинтон, Уорвик Дэвис, Винсент Грасс

Описание:
Люси, Сьюзен, Эдмунд и Питер Пэванси возвращаются в Нарнию. В Англии прошло совсем немного времени, а в Нарнии — века. Страна находится под гнетом зловещего короля Мираза. Но у волшебного королевства есть надежда — юный принц Каспиан. Чтобы помочь Каспиану отвоевать трон, четверо героев собирают армию мифических существ во главе с Асланом — основателем и покровителем Нарнии…

Мировая премьера: 9 мая 2008


Качество: BDRip 1080p by DD2D3
Формат: MKV
Видео кодек: V_MPEGH/ISO/HEVC
Аудио кодек: AC3
Видео: V_MPEGH/ISO/HEVC; 1920x800 (2.40:1); 3002 Kbps; 59,940 fps; 0,033 bpp
Аудио: русский; AC3; 640 Kbps; CBR; 6 ch
Навигация по главам: есть



General
Unique ID : 193063768525210952691695284750544110296 (0x913EBAB3444FF0B695CEADA88DD982D8)
Complete name : D:\The Chronicles of Narnia Trilogy (2005-2010) BDRip - HEVC 1080p 10 bit 60 FPS\The Chronicles of Narnia. The Prince Caspian (2008) BDRip - HEVC 1080p 10 bit 60 FPS.mkv
Format : Matroska
Format version : Version 4
File size : 3.82 GiB
Duration : 2 h 29 min
Overall bit rate : 3 647 kb/s
Movie name : Rip by DD2D3
Encoded date : UTC 2020-11-14 12:28:04
Writing application : mkvmerge v10.0.0 ('To Drown In You') 32bit
Writing library : libebml v1.3.4 + libmatroska v1.4.5
Attachments : poster

Video
ID : 1
Format : HEVC
Format/Info : High Efficiency Video Coding
Format profile : Main 10@L4.1@Main
Codec ID : V_MPEGH/ISO/HEVC
Duration : 2 h 29 min
Bit rate : 3 002 kb/s
Width : 1 920 pixels
Height : 800 pixels
Display aspect ratio : 2.40:1
Frame rate mode : Constant
Frame rate : 59.940 (60000/1001) FPS
Color space : YUV
Chroma subsampling : 4:2:0
Bit depth : 10 bits
Bits/(Pixel*Frame) : 0.033
Stream size : 3.14 GiB (82%)
Writing library : x265 2.3+33-0b7d54dbb71a87a0:[Windows][MSVC 1800][64 bit] 10bit: KG7x [x265.ru]
Encoding settings : cpuid=1173503 / frame-threads=2 / numa-pools=4 / wpp / no-pmode / no-pme / no-psnr / no-ssim / log-level=2 / input-csp=1 / input-res=1920x800 / interlace=0 / total-frames=539376 / level-idc=41 / high-tier=1 / uhd-bd=0 / ref=3 / no-allow-non-conformance / no-repeat-headers / annexb / no-aud / no-hrd / info / hash=0 / no-temporal-layers / open-gop / min-keyint=25 / keyint=250 / bframes=4 / b-adapt=2 / b-pyramid / bframe-bias=0 / rc-lookahead=20 / lookahead-slices=5 / scenecut=40 / no-intra-refresh / ctu=64 / min-cu-size=8 / no-rect / no-amp / max-tu-size=32 / tu-inter-depth=1 / tu-intra-depth=1 / limit-tu=0 / rdoq-level=0 / dynamic-rd=0.00 / no-ssim-rd / signhide / no-tskip / nr-intra=0 / nr-inter=0 / no-constrained-intra / strong-intra-smoothing / max-merge=2 / limit-refs=3 / no-limit-modes / me=1 / subme=2 / merange=57 / temporal-mvp / weightp / no-weightb / no-analyze-src-pics / deblock=0:0 / no-sao / no-sao-non-deblock / rd=3 / no-early-skip / no-rskip / no-fast-intra / no-tskip-fast / no-cu-lossless / no-b-intra / rdpenalty=0 / psy-rd=4.00 / psy-rdoq=0.00 / no-rd-refine / analysis-mode=0 / no-lossless / cbqpoffs=0 / crqpoffs=0 / rc=abr / bitrate=3000 / qcomp=0.60 / qpstep=1 / stats-write=0 / stats-read=2 / cplxblur=20.0 / qblur=0.5 / ipratio=1.10 / pbratio=1.00 / aq-mode=0 / aq-strength=0.00 / no-cutree / zone-count=0 / no-strict-cbr / qg-size=64 / rc-grain / qpmax=69 / qpmin=0 / sar=1 / overscan=0 / videoformat=5 / range=0 / colorprim=2 / transfer=2 / colormatrix=2 / chromaloc=0 / display-window=0 / max-cll=0,0 / min-luma=0 / max-luma=1023 / log2-max-poc-lsb=8 / vui-timing-info / vui-hrd-info / slices=1 / opt-qp-pps / opt-ref-list-length-pps / no-multi-pass-opt-rps / scenecut-bias=0.05 / no-opt-cu-delta-qp / no-aq-motion / no-hdr / no-hdr-opt / refine-level=5 / no-limit-sao
Default : Yes
Forced : No

Audio
ID : 2
Format : AC-3
Format/Info : Audio Coding 3
Commercial name : Dolby Digital
Codec ID : A_AC3
Duration : 2 h 29 min
Bit rate mode : Constant
Bit rate : 640 kb/s
Channel(s) : 6 channels
Channel layout : L R C LFE Ls Rs
Sampling rate : 48.0 kHz
Frame rate : 31.250 FPS (1536 SPF)
Compression mode : Lossy
Stream size : 687 MiB (18%)
Title : RUS.DUB.AC3
Language : Russian
Service kind : Complete Main
Default : Yes
Forced : No

Text
ID : 3
Format : UTF-8
Codec ID : S_TEXT/UTF8
Codec ID/Info : UTF-8 Plain Text
Duration : 2 h 16 min
Bit rate : 38 b/s
Count of elements : 945
Stream size : 38.3 KiB (0%)
Title : Rus.Subtitles.Full
Language : Russian
Default : No
Forced : No

Menu
00:00:00.000 : en:Chapter 00
00:08:32.512 : en:Chapter 01
00:15:51.283 : en:Chapter 02
00:19:54.568 : en:Chapter 03
00:27:04.414 : en:Chapter 04
00:32:57.475 : en:Chapter 05
00:43:08.919 : en:Chapter 06
00:46:19.777 : en:Chapter 07
00:56:13.036 : en:Chapter 08
01:01:00.198 : en:Chapter 09
01:04:50.845 : en:Chapter 10
01:21:40.103 : en:Chapter 11
01:24:03.496 : en:Chapter 12
01:25:20.115 : en:Chapter 13
01:33:54.879 : en:Chapter 14
01:39:12.613 : en:Chapter 15
01:51:48.868 : en:Chapter 16
01:58:46.953 : en:Chapter 17
02:03:54.343 : en:Chapter 18
02:06:27.746 : en:Chapter 19
02:11:15.450 : en:Chapter 20
02:17:46.383 : en:Chapter 21


скриншот   скриншот   скриншот  



Хроники Нарнии Покоритель Зари - The Chronicles of Narnia The Voyage of the Dawn Treader «Назад в волшебство. Назад к надежде. Назад в Нарнию»

Год выпуска: 2010
Страна: США, Великобритания
Жанр: фантастика, боевик, комедия, приключения

Продолжительность: 01:52:41
Перевод: Дубляж
Субтитры: русские

Режиссер: Майкл Эптед

В ролях: Бен Барнс, Скандар Кейнс, Джорджи Хенли, Уилл Поултер, Гари Свит, Тильда Суинтон, Анна Попплуэлл, Уильям Моусли, Лиам Нисон, Саймон Пегг

Описание:
Эдмунд, Люси, их кузен Юстас и король Каспиан отплывают на корабле «Покоритель Зари» на поиски друзей отца Каспиана — семи лордов: Ревелиана, Берна, Аргоза, Мавроморна, Октезиана, Рестимара и Рупа, изгнанных во время недолгого правления тирана Мираза.

Мировая премьера: 2 декабря 2010


Качество: BDRip 1080p by DD2D3
Формат: MKV
Видео кодек: V_MPEGH/ISO/HEVC
Аудио кодек: DTS
Видео: V_MPEGH/ISO/HEVC;1920x1080 (16:9); 4002 Kbps;59,940 fps; 0,032 bpp
Аудио: русский; DTS; 1509 Kbps; CBR; 6 ch; 24 bit
Навигация по главам: есть



General
Unique ID : 181631369308243179942987605974916239051 (0x88A4EDE68B65C8B99E5A12469FC78ECB)
Complete name : D:\The Chronicles of Narnia Trilogy (2005-2010) BDRip - HEVC 1080p 10 bit 60 FPS\The Chronicles of Narnia. The Voyage of the Dawn Treader (2010) BDRip - HEVC 1080p 10 bit 60 FPS.mkv
Format : Matroska
Format version : Version 4
File size : 4.34 GiB
Duration : 1 h 52 min
Overall bit rate : 5 516 kb/s
Movie name : Rip by DD2D3
Encoded date : UTC 2020-11-14 12:30:52
Writing application : mkvmerge v10.0.0 ('To Drown In You') 32bit
Writing library : libebml v1.3.4 + libmatroska v1.4.5
Attachments : poster

Video
ID : 1
Format : HEVC
Format/Info : High Efficiency Video Coding
Format profile : Main 10@L4.1@Main
Codec ID : V_MPEGH/ISO/HEVC
Duration : 1 h 52 min
Bit rate : 4 002 kb/s
Width : 1 920 pixels
Height : 1 080 pixels
Display aspect ratio : 16:9
Frame rate mode : Constant
Frame rate : 59.940 (60000/1001) FPS
Color space : YUV
Chroma subsampling : 4:2:0
Bit depth : 10 bits
Bits/(Pixel*Frame) : 0.032
Stream size : 3.15 GiB (73%)
Writing library : x265 2.3+33-0b7d54dbb71a87a0:[Windows][MSVC 1800][64 bit] 10bit: KG7x [x265.ru]
Encoding settings : cpuid=1173503 / frame-threads=2 / numa-pools=4 / wpp / no-pmode / no-pme / no-psnr / no-ssim / log-level=2 / input-csp=1 / input-res=1920x1080 / interlace=0 / total-frames=405236 / level-idc=41 / high-tier=1 / uhd-bd=0 / ref=3 / no-allow-non-conformance / no-repeat-headers / annexb / no-aud / no-hrd / info / hash=0 / no-temporal-layers / open-gop / min-keyint=25 / keyint=250 / bframes=4 / b-adapt=2 / b-pyramid / bframe-bias=0 / rc-lookahead=20 / lookahead-slices=6 / scenecut=40 / no-intra-refresh / ctu=64 / min-cu-size=8 / no-rect / no-amp / max-tu-size=32 / tu-inter-depth=1 / tu-intra-depth=1 / limit-tu=0 / rdoq-level=0 / dynamic-rd=0.00 / no-ssim-rd / signhide / no-tskip / nr-intra=0 / nr-inter=0 / no-constrained-intra / strong-intra-smoothing / max-merge=2 / limit-refs=3 / no-limit-modes / me=1 / subme=2 / merange=57 / temporal-mvp / weightp / no-weightb / no-analyze-src-pics / deblock=0:0 / no-sao / no-sao-non-deblock / rd=3 / no-early-skip / no-rskip / no-fast-intra / no-tskip-fast / no-cu-lossless / no-b-intra / rdpenalty=0 / psy-rd=4.00 / psy-rdoq=0.00 / no-rd-refine / analysis-mode=0 / no-lossless / cbqpoffs=0 / crqpoffs=0 / rc=abr / bitrate=4000 / qcomp=0.60 / qpstep=1 / stats-write=0 / stats-read=2 / cplxblur=20.0 / qblur=0.5 / ipratio=1.10 / pbratio=1.00 / aq-mode=0 / aq-strength=0.00 / no-cutree / zone-count=0 / no-strict-cbr / qg-size=64 / rc-grain / qpmax=69 / qpmin=0 / sar=1 / overscan=0 / videoformat=5 / range=0 / colorprim=2 / transfer=2 / colormatrix=2 / chromaloc=0 / display-window=0 / max-cll=0,0 / min-luma=0 / max-luma=1023 / log2-max-poc-lsb=8 / vui-timing-info / vui-hrd-info / slices=1 / opt-qp-pps / opt-ref-list-length-pps / no-multi-pass-opt-rps / scenecut-bias=0.05 / no-opt-cu-delta-qp / no-aq-motion / no-hdr / no-hdr-opt / refine-level=5 / no-limit-sao
Default : Yes
Forced : No

Audio
ID : 2
Format : DTS
Format/Info : Digital Theater Systems
Codec ID : A_DTS
Duration : 1 h 52 min
Bit rate mode : Constant
Bit rate : 1 509 kb/s
Channel(s) : 6 channels
Channel layout : C L R Ls Rs LFE
Sampling rate : 48.0 kHz
Frame rate : 93.750 FPS (512 SPF)
Bit depth : 24 bits
Compression mode : Lossy
Stream size : 1.19 GiB (27%)
Title : RUS.DUB.DTS
Language : Russian
Default : Yes
Forced : No

Text
ID : 3
Format : UTF-8
Codec ID : S_TEXT/UTF8
Codec ID/Info : UTF-8 Plain Text
Duration : 1 h 51 min
Bit rate : 45 b/s
Count of elements : 1300
Stream size : 37.2 KiB (0%)
Title : Rus.Subtitles.Full
Language : Russian
Default : No
Forced : No

Menu
00:00:00.000 : en:Chapter 00
00:04:28.476 : en:Chapter 01
00:07:37.039 : en:Chapter 02
00:11:58.259 : en:Chapter 03
00:15:22.463 : en:Chapter 04
00:20:06.288 : en:Chapter 05
00:27:14.507 : en:Chapter 06
00:32:20.688 : en:Chapter 07
00:36:46.370 : en:Chapter 08
00:39:51.597 : en:Chapter 09
00:41:56.388 : en:Chapter 10
00:45:21.927 : en:Chapter 11
00:47:51.493 : en:Chapter 12
00:52:52.544 : en:Chapter 13
00:58:04.939 : en:Chapter 14
01:01:51.332 : en:Chapter 15
01:05:43.731 : en:Chapter 16
01:08:20.805 : en:Chapter 17
01:10:49.912 : en:Chapter 18
01:16:55.027 : en:Chapter 19
01:20:23.568 : en:Chapter 20
01:23:48.314 : en:Chapter 21
01:28:23.506 : en:Chapter 22
01:32:30.461 : en:Chapter 23
01:35:58.753 : en:Chapter 24
01:38:07.464 : en:Chapter 25
01:40:55.549 : en:Chapter 26
01:45:06.967 : en:Chapter 27


скриншот   скриншот   скриншот   скриншот  


pb.wtf



Скачать Хроники Нарнии: Трилогия через торрент https://funkyimg.com/i/38CJU.jpg Скачать фильм Хроники Нарнии: Трилогия через торрент бесплантно в хорошем качестве Описание: Четверых детей родители отправляют из Лондона в деревню, к старому профессору — другу семьи. В его доме дети обнаруживают ... 10 10 3
Info! Золотая раздача, скачанное не засчитывается.
Торрент: Зарегистрирован [2020-11-14 20:07] · скачан: 9 раз
Статус: не проверено
Размер: 12.8 GB
Как cкачать? Как скачать Хроники Нарнии: Трилогия через торрент | qTorrent

% Раздел Тема Автор DL S | L
Сборники (HD Video) [ 13.1 GB ] Хроники Нарнии: Трилогия / The Chronicles of Narnia: Trilogy [2005-2010 BDRip] VintMosina Скачать
1 | 0

28-11-2019 20:33  

Отключить всю рекламу на сайте

    Дорогой пользователь! Огромная просьба, поблагодарите релизера, оцените раздачу и оставьте свои комментарий, если Вы скачали Хроники Нарнии: Трилогия через торрент бесплатно! Внесите свою лепту в развитие PiratBit!
    Комментировать посты могут только пользователи прошедшие не сложную регистрацию
    Показать сообщения:    

    Хроники Нарнии: Трилогия через торрент
    Скачать бесплатно Хроники Нарнии: Трилогия
    Хроники Нарнии: Трилогия скачать торрент
    Хроники Нарнии: Трилогия смотреть онлайн
    Cкачать фильм Хроники Нарнии: Трилогия бесплатно
    Хроники Нарнии: Трилогия скачать торрент в хорошем качестве
    Хроники Нарнии: Трилогия смотреть онлайн бесплатно в хорошем качестве


    Вы не можете начинать темы
    Вы не можете отвечать на сообщения
    Вы не можете редактировать свои сообщения
    Вы не можете удалять свои сообщения
    Вы не можете голосовать в опросах
    Вы не можете прикреплять файлы к сообщениям
    Вы можете скачивать файлы