Достать ножи: Стеклянная луковица

MVO

Добыча

Дубляж

Уэнсдэй

1 сезон

Тор

Дубляж

13 клиническая

1 сезон

Жестокая ночь

MVO

Одни из нас

1 сезон

Deluxe

pack

Рекомендуем

30

Пиратка

ВАЖНО

ВАЖНО

Ghostwire

Пиратка

jed

RePack

nioh2

RePack

RDR2

RePack

NEED FOR SPEED™ PAYBACK

RePack

скачать торрент

Кинопоиск HD

Острые козырьки 6 сезон

6 сезон

FAR CRY 6

RePack

скачать торрент

Лицензия

скачать торрент

MVO

1

1 сезон

скачать торрент

1 сезон

скачать торрент

Лицензия

  

Хроники Нарнии: Трилогия / The Chronicles of Narnia: Trilogy (Майкл Эптид, Эндрю Адамсон) [2005-2010, фэнтези, приключения, WEB-DLRip - HEVC 1080p 10 bit 60 FPS, Дубляж]

Хроники Нарнии: Трилогия через торрент pb.wtf

Раздают: 1 [ 0 KB/s ]
Размер: 12.94 GB | Добавлен: 6 мес. назад | Торрент скачан:36 раз
| Скачать | Поддержите нас   

14-11-2020 20:06 Хроники Нарнии: Трилогия Скачать торрент  


Хроники Нарнии — цикл из семи фэнтезийных повестей, написанных Клайвом Стэйплзом Льюисом. В них рассказывается о приключениях детей в волшебной стране под названием Нарния, где животные могут разговаривать, магия никого не удивляет, а добро борется со злом. «Хроники Нарнии» содержат много намёков на христианские идеи в доступном для юных читателей виде. В дополнение к христианским темам Льюис описывает персонажей, имеющих прообразы в греческой и римской мифологии и в традиционных британских и ирландских сказках, в том числе существуют явные мотивы, близкие к последним.

Серия пользуется огромной популярностью. К 2006 году было продано более 100 миллионов экземпляров книг на 41 языке (Kelly 2006, Guthmann 2005), существуют театральные постановки, радиопостановки, телеэкранизации, киноэкранизации и компьютерные игры.

Иллюстрацией оригинального цикла книг занималась Паулина Бейнс.

The Chronicles of Narnia & The Lion, the Witch and the Wardrobe
«Начало великой саги»

Информация Описание:
Название: Хроники Нарнии & Лев, колдунья и волшебный шкаф
Оригинальное название: The Chronicles of Narnia & The Lion, the Witch and the Wardrobe
Год выхода: 2005
Жанр: фэнтези, приключения, семейный
Режиссер: Эндрю Адамсон
В ролях: Джорджи Хенли, Скандар Кейнс, Уильям Моусли, Анна Попплуэлл, Тильда Суинтон, Джеймс МакЭвой, Джим Бродбент, Киран Шах, Джеймс Космо, Джуди МакИнтош
Описание: Четверых детей родители отправляют из Лондона в деревню, к старому профессору — другу семьи. В его доме дети обнаруживают таинственный платяной шкаф, посредством которого они попадают в сказочную страну Нарнию, где обитают фантастические люди, животные и существа. Оказывается, что эта мирная страна находится под властью злой Колдуньи, из-за которой там — вечная зима. Дети должны помочь царю Аслану (Великому Льву, который много столетий назад основал Нарнию) победить Колдунью, разрушить заклинания и освободить жителей Нарнии…


Страна: США, Великобритания
Студия: Walt Disney Pictures
Продолжительность: 02:23:07
Перевод: Дублированный | Невафильм
Субтитры: русские | Blu-Ray
Навигация по главам: да
Информация о файле:
Качество: WEB-DLRip - HEVC 1080p Rip by DD2D3
Формат: MKV
Видео: V_MPEGH/ISO/HEVC; 1920x1080 (16:9); 3722 Kbps; 60 fps; 0,030 bpp
Аудио: русский; AC3; 640 Kbps; CBR; 6 ch ||
Доп. информация: Open Matte

Общее
Уникальный идентификатор : 248697733598514091632336201941926392430 (0xBB1970F40C0893F580E16F945D11B26E)
Полное имя : E:\The Chronicles of Narnia Trilogy (2005-2010) WEB-DLRip - HEVC 1080p 10 bit 60 FPS\The Chronicles of Narnia & The Lion, the Witch and the Wardrobe (2005) [Open Matte] WEB-DLRip - HEVC 1080p 10 bit 60 FPS.mkv
Формат : Matroska
Версия формата : Version 2
Размер файла : 4,45 Гбайт
Продолжительность : 2 ч. 23 м.
Общий поток : 4 451 Кбит/сек
Название фильма : Rip by DD2D3
Дата кодирования : UTC 2022-07-15 17:09:14
Программа кодирования : mkvmerge v6.9.1 ('Blue Panther') 32bit built on Apr 18 2014 18:15:44
Библиотека кодирования : libebml v1.3.0 + libmatroska v1.4.1
Attachments : poster

Видео
Идентификатор : 1
Формат : HEVC
Формат/Информация : High Efficiency Video Coding
Профиль формата : Main [email protected]@Main
Идентификатор кодека : V_MPEGH/ISO/HEVC
Продолжительность : 2 ч. 23 м.
Битрейт : 3 723 Кбит/сек
Ширина : 1 920 пикселей
Высота : 1 080 пикселей
Соотношение сторон : 16:9
Режим частоты кадров : Постоянный
Частота кадров : 60,000 кадров/сек
Цветовое пространство : YUV
Субдискретизация насыщенности : 4:2:0
Битовая глубина : 10 бит
Бит/(Пиксели*Кадры) : 0.030
Размер потока : 3,72 Гбайт (84%)
Default : Да
Forced : Нет
Цветовой диапазон : Limited
Основные цвета : BT.709
Характеристики трансфера : BT.709
Коэффициенты матрицы : BT.709

Аудио
Идентификатор : 2
Формат : AC-3
Формат/Информация : Audio Coding 3
Коммерческое название : Dolby Digital
Идентификатор кодека : A_AC3
Продолжительность : 2 ч. 23 м.
Вид битрейта : Постоянный
Битрейт : 640 Кбит/сек
Каналы : 6 каналов
Channel layout : L R C LFE Ls Rs
Частота : 48,0 КГц
Частота кадров : 31,250 кадров/сек (1536 SPF)
Метод сжатия : С потерями
Размер потока : 655 Мбайт (14%)
Заголовок : Дубляж | Blu-Ray | Невафильм
Язык : Russian
Service kind : Complete Main
Default : Да
Forced : Нет

Текст
Идентификатор : 3
Формат : UTF-8
Идентификатор кодека : S_TEXT/UTF8
Идентификатор кодека/Информация : UTF-8 Plain Text
Заголовок : Full | Blu-Ray
Язык : Russian
Default : Нет
Forced : Нет

Меню
00:00:00.000 : en:Introduction
00:07:07.636 : en:Mrs. MacReady
00:11:15.049 : en:The Wardrobe
00:18:23.144 : en:Mr. Tumnus' House
00:24:34.223 : en:Just Your Imagination
00:29:45.784 : en:Hail the Queen!
00:34:55.760 : en:Peter, Wake Up!
00:39:29.826 : en:The World of Narnia
00:46:50.975 : en:Beavers' Home
00:50:23.354 : en:Behold the Queen's Castle
00:56:43.150 : en:They're After Us!
01:01:15.505 : en:The Queen's Lair
01:12:16.749 : en:Across the Melting River
01:18:57.232 : en:Aslan's Camp
01:24:36.405 : en:Sir Peter
01:31:49.879 : en:The Lion and the Witch
01:37:41.606 : en:Aslan's Sacrifice
01:46:13.617 : en:You Have to Lead Us
01:49:13.881 : en:Battle for Narnia
01:52:39.169 : en:Aslan's Resurrection
01:55:00.727 : en:Phoenix
01:59:29.079 : en:Peter vs. the Witch
02:05:30.022 : en:The Royal Coronation
02:11:34.053 : en:Credits


The Chronicles of Narnia & The Prince Caspian
«Всё, что вы знаете, скоро изменится»

Информация Описание:
Название: Хроники Нарнии & Принц Каспиан
Оригинальное название: The Chronicles of Narnia & The Prince Caspian
Год выхода: 2008
Жанр: фэнтези, приключения, семейный
Режиссер: Эндрю Адамсон
В ролях: Бен Барнс, Джорджи Хенли, Скандар Кейнс, Уильям Моусли, Анна Попплуэлл, Серджо Кастеллитто, Питер Динклэйдж, Тильда Суинтон, Уорвик Дэвис, Винсент Грасс
Описание: Люси, Сьюзен, Эдмунд и Питер Пэванси возвращаются в Нарнию. В Англии прошло совсем немного времени, а в Нарнии — века. Страна находится под гнетом зловещего короля Мираза. Но у волшебного королевства есть надежда — юный принц Каспиан. Чтобы помочь Каспиану отвоевать трон, четверо героев собирают армию мифических существ во главе с Асланом — основателем и покровителем Нарнии…


Страна: США, Польша, Словения, Чехия, Великобритания
Студия: Walt Disney Pictures
Продолжительность: 02:29:59
Перевод: Дублированный | Невафильм
Субтитры: русские | Blu-Ray
Навигация по главам: да
Информация о файле:
Качество: WEB-DLRip - HEVC 1080p Rip by DD2D3
Формат: MKV
Видео: V_MPEGH/ISO/HEVC; 1920x1080 (16:9); 3642 Kbps; 60 fps; 0,029 bpp
Аудио: русский; AC3; 448 Kbps; CBR; 6 ch ||
Доп. информация: Open Matte

Общее
Уникальный идентификатор : 205052144982751981962275418780606312523 (0x9A439B4B5671065CA229BA9E566AB04B)
Полное имя : E:\The Chronicles of Narnia Trilogy (2005-2010) WEB-DLRip - HEVC 1080p 10 bit 60 FPS\The Chronicles of Narnia & The Prince Caspian (2008) [Open Matte] WEB-DLRip - HEVC 1080p 10 bit 60 FPS.mkv
Формат : Matroska
Версия формата : Version 2
Размер файла : 4,37 Гбайт
Продолжительность : 2 ч. 29 м.
Общий поток : 4 173 Кбит/сек
Название фильма : Rip by DD2D3
Дата кодирования : UTC 2022-07-16 17:53:01
Программа кодирования : mkvmerge v6.9.1 ('Blue Panther') 32bit built on Apr 18 2014 18:15:44
Библиотека кодирования : libebml v1.3.0 + libmatroska v1.4.1
Attachments : poster

Видео
Идентификатор : 1
Формат : HEVC
Формат/Информация : High Efficiency Video Coding
Профиль формата : Main [email protected]@Main
Идентификатор кодека : V_MPEGH/ISO/HEVC
Продолжительность : 2 ч. 29 м.
Битрейт : 3 642 Кбит/сек
Ширина : 1 920 пикселей
Высота : 1 080 пикселей
Соотношение сторон : 16:9
Режим частоты кадров : Постоянный
Частота кадров : 60,000 кадров/сек
Цветовое пространство : YUV
Субдискретизация насыщенности : 4:2:0
Битовая глубина : 10 бит
Бит/(Пиксели*Кадры) : 0.029
Размер потока : 3,82 Гбайт (87%)
Default : Да
Forced : Нет
Цветовой диапазон : Limited
Основные цвета : BT.709
Характеристики трансфера : BT.709
Коэффициенты матрицы : BT.709

Аудио
Идентификатор : 2
Формат : AC-3
Формат/Информация : Audio Coding 3
Коммерческое название : Dolby Digital
Идентификатор кодека : A_AC3
Продолжительность : 2 ч. 29 м.
Вид битрейта : Постоянный
Битрейт : 448 Кбит/сек
Каналы : 6 каналов
Channel layout : L R C LFE Ls Rs
Частота : 48,0 КГц
Частота кадров : 31,250 кадров/сек (1536 SPF)
Метод сжатия : С потерями
Размер потока : 481 Мбайт (11%)
Заголовок : Дубляж | Blu-Ray | Невафильм
Язык : Russian
Service kind : Complete Main
Default : Да
Forced : Нет

Текст
Идентификатор : 3
Формат : UTF-8
Идентификатор кодека : S_TEXT/UTF8
Идентификатор кодека/Информация : UTF-8 Plain Text
Заголовок : Full | Blu-Ray
Язык : Russian
Default : Нет
Forced : Нет
Statistics Tags Issue : mkvmerge v8.3.0 ('Over the Horizon') 32bit 2020-03-20 16:44:00 / mkvmerge v6.9.1 ('Blue Panther') 32bit built on Apr 18 2014 18:15:44 2022-07-16 17:53:01
FromStats_BitRate : 46
FromStats_Duration : 02:16:23.007000000
FromStats_FrameCount : 943
FromStats_StreamSize : 47723

Меню
00:00:00.000 : en:Chapter 00
00:08:32.512 : en:Chapter 01
00:15:51.283 : en:Chapter 02
00:19:54.568 : en:Chapter 03
00:27:04.414 : en:Chapter 04
00:32:57.475 : en:Chapter 05
00:43:08.919 : en:Chapter 06
00:46:19.777 : en:Chapter 07
00:56:13.036 : en:Chapter 08
01:01:00.198 : en:Chapter 09
01:04:50.845 : en:Chapter 10
01:21:40.103 : en:Chapter 11
01:24:03.496 : en:Chapter 12
01:25:20.115 : en:Chapter 13
01:33:54.879 : en:Chapter 14
01:39:12.613 : en:Chapter 15
01:51:48.868 : en:Chapter 16
01:58:46.953 : en:Chapter 17
02:03:54.343 : en:Chapter 18
02:06:27.746 : en:Chapter 19
02:11:15.450 : en:Chapter 20
02:17:46.383 : en:Chapter 21


The Chronicles of Narnia The Voyage of the Dawn Treader
«Назад в волшебство. Назад к надежде. Назад в Нарнию»

Информация Описание:
Название: Хроники Нарнии & Покоритель Зари
Оригинальное название: The Chronicles of Narnia & The Voyage of the Dawn Treader
Год выхода: 2010
Жанр: фэнтези, приключения, семейный
Режиссер: Майкл Эптед
В ролях: Бен Барнс, Скандар Кейнс, Джорджи Хенли, Уилл Поултер, Гари Свит, Тильда Суинтон, Анна Попплуэлл, Уильям Моусли, Лиам Нисон, Саймон Пегг
Описание: Эдмунд, Люси, их кузен Юстас и король Каспиан отплывают на корабле «Покоритель Зари» на поиски друзей отца Каспиана — семи лордов: Ревелиана, Берна, Аргоза, Мавроморна, Октезиана, Рестимара и Рупа, изгнанных во время недолгого правления тирана Мираза.


Страна: США, Великобритания
Студия: Fox 2000 Pictures
Продолжительность: 01:52:40
Перевод: Дублированный | Невафильм
Субтитры: русские | Blu-Ray
Навигация по главам: да
Информация о файле:
Качество: WEB-DLRip - HEVC 1080p Rip by DD2D3
Формат: MKV
Видео: V_MPEGH/ISO/HEVC;1920x1080 (16:9); 3613 Kbps; 60 fps; 0,029 bpp
Аудио: русский; DTS; 1509 Kbps; CBR; 6 ch; 24 bit ||
Доп. информация: Open Matte

Общее
Уникальный идентификатор : 247920667838498574855355817937452231676 (0xBA83C8A743E4F573BCF1E58C02496BFC)
Полное имя : E:\The Chronicles of Narnia Trilogy (2005-2010) WEB-DLRip - HEVC 1080p 10 bit 60 FPS\The Chronicles of Narnia & The Voyage of the Dawn Treader (2010) [Open Matte] WEB-DLRip - HEVC 1080p 10 bit 60 FPS.mkv
Формат : Matroska
Версия формата : Version 2
Размер файла : 4,11 Гбайт
Продолжительность : 1 ч. 52 м.
Общий поток : 5 227 Кбит/сек
Название фильма : Rip by from DD2D3
Дата кодирования : UTC 2022-07-17 08:49:58
Программа кодирования : mkvmerge v6.9.1 ('Blue Panther') 32bit built on Apr 18 2014 18:15:44
Библиотека кодирования : libebml v1.3.0 + libmatroska v1.4.1
Attachments : poster

Видео
Идентификатор : 1
Формат : HEVC
Формат/Информация : High Efficiency Video Coding
Профиль формата : Main [email protected]@Main
Идентификатор кодека : V_MPEGH/ISO/HEVC
Продолжительность : 1 ч. 52 м.
Битрейт : 3 614 Кбит/сек
Ширина : 1 920 пикселей
Высота : 1 080 пикселей
Соотношение сторон : 16:9
Режим частоты кадров : Постоянный
Частота кадров : 60,000 кадров/сек
Цветовое пространство : YUV
Субдискретизация насыщенности : 4:2:0
Битовая глубина : 10 бит
Бит/(Пиксели*Кадры) : 0.029
Размер потока : 2,84 Гбайт (69%)
Default : Да
Forced : Нет
Цветовой диапазон : Limited
Основные цвета : BT.709
Характеристики трансфера : BT.709
Коэффициенты матрицы : BT.709

Аудио
Идентификатор : 2
Формат : DTS
Формат/Информация : Digital Theater Systems
Идентификатор кодека : A_DTS
Продолжительность : 1 ч. 52 м.
Вид битрейта : Постоянный
Битрейт : 1 509 Кбит/сек
Каналы : 6 каналов
Channel layout : C L R Ls Rs LFE
Частота : 48,0 КГц
Частота кадров : 93,750 кадра/сек (512 SPF)
Битовая глубина : 24 бит
Метод сжатия : С потерями
Размер потока : 1,19 Гбайт (29%)
Заголовок : Дубляж | Blu-Ray | Невафильм
Язык : Russian
Default : Да
Forced : Нет

Текст
Идентификатор : 3
Формат : UTF-8
Идентификатор кодека : S_TEXT/UTF8
Идентификатор кодека/Информация : UTF-8 Plain Text
Заголовок : Full | Blu-Ray
Язык : Russian
Default : Да
Forced : Нет

Меню
00:00:00.000 : en:00:00:00.000
00:04:28.477 : en:00:04:28.477
00:07:37.040 : en:00:07:37.040
00:11:58.259 : en:00:11:58.259
00:15:22.463 : en:00:15:22.463
00:20:06.288 : en:00:20:06.288
00:27:14.508 : en:00:27:14.508
00:32:20.689 : en:00:32:20.689
00:36:46.371 : en:00:36:46.371
00:39:51.598 : en:00:39:51.598
00:41:56.389 : en:00:41:56.389
00:45:21.928 : en:00:45:21.928
00:47:51.494 : en:00:47:51.494
00:52:52.544 : en:00:52:52.544
00:58:04.940 : en:00:58:04.940
01:01:51.333 : en:01:01:51.333
01:05:43.731 : en:01:05:43.731
01:08:20.805 : en:01:08:20.805
01:10:49.912 : en:01:10:49.912
01:16:55.027 : en:01:16:55.027
01:20:23.569 : en:01:20:23.569
01:23:48.315 : en:01:23:48.315
01:28:23.507 : en:01:28:23.507
01:32:30.462 : en:01:32:30.462
01:35:58.753 : en:01:35:58.753
01:38:07.465 : en:01:38:07.465
01:40:55.549 : en:01:40:55.549
01:45:06.967 : en:01:45:06.967





Скачать Хроники Нарнии: Трилогия через торрент https://a.picpig.ru/2022/07/17/maxresdefault.jpg Скачать, смотреть онлайн Хроники Нарнии: Трилогия бесплантно в хорошем качестве Описание: Название: Хроники Нарнии & Лев, колдунья и волшебный шкаф Оригинальное название: The Chronicles of Narnia & The Lion, the Witch ... 9.3 10 3
Торрент: Зарегистрирован [2022-07-17 11:17] · скачан: 36 раз
Статус: √ проверено
Размер: 12.94 GB
Как cкачать? Как скачать Хроники Нарнии: Трилогия через торрент | UTorrent

% Раздел Тема Автор DL S | L
Сборники (HD Video) [ 13.1 GB ] Хроники Нарнии: Трилогия / The Chronicles of Narnia: Trilogy | Дубляж | BDRip,Дубляж VintMosina Скачать
1 | 0

28-11-2019 20:33  


Отключить вcю реклaмy на сайте, в т.ч. и в плеере онлайн просмотра!

17-07-2022 11:24 Хроники Нарнии: Трилогия Скачать торрент  

Добавил:

1. The Chronicles of Narnia & The Lion, the Witch and the Wardrobe (2005) [Open Matte] WEB-DLRip - HEVC 1080p 10 bit 60 FPS
2. The Chronicles of Narnia & The Prince Caspian (2008) [Open Matte] WEB-DLRip - HEVC 1080p 10 bit 60 FPS
3. The Chronicles of Narnia & The Voyage of the Dawn Treader (2010) [Open Matte] WEB-DLRip - HEVC 1080p 10 bit 60 FPS



    Дорогой пользователь! Огромная просьба, поблагодарите релизера, оцените раздачу и оставьте свои комментарий, если Вы скачали Хроники Нарнии: Трилогия через торрент бесплатно!!
    Комментировать посты могут только пользователи прошедшие не сложную регистрацию
    Показать сообщения:    


    Хроники Нарнии: Трилогия через торрент
    Скачать бесплатно Хроники Нарнии: Трилогия
    Хроники Нарнии: Трилогия скачать торрент
    Хроники Нарнии: Трилогия смотреть онлайн
    Cкачать фильм Хроники Нарнии: Трилогия бесплатно
    Хроники Нарнии: Трилогия скачать торрент в хорошем качестве
    Хроники Нарнии: Трилогия смотреть онлайн бесплатно в хорошем качестве
    Вы не можете начинать темы
    Вы не можете отвечать на сообщения
    Вы не можете редактировать свои сообщения
    Вы не можете удалять свои сообщения
    Вы не можете голосовать в опросах
    Вы не можете прикреплять файлы к сообщениям
    Вы можете скачивать файлы
    Хроники Нарнии: Трилогия / The Chronicles of Narnia: Trilogy [2005-2010, фэнтези, приключения, WEB-DLRip - HEVC 1080p 10 bit 60 FPS, Дубляж] смотреть онлайн, скачать торрент picoco.icu