Ссылка на приватное зеркало нашего сайта всего за 1$. Внимание количество ограничено!!!

2 сезон

iTunes

1 сезон

1

2 сезон

2 сезон

iTunes

1 сезон

RePack

30

Ultimate

ВАЖНО

ИГРА 18+

pack

RePack

MK11
pack

Забери бонус

RePack

jed

!!Акция!!

Alien_Rage

RePack

fifa19

RePack

Assassins Creed: Odyssey

RePack

NEED FOR SPEED™ PAYBACK

4 сезон

9 сезон

Бесстыжие 9 сезон

Все сериалы

все сериалы на PB.wtf

RePack

FAR CRY 5
  

Лунная база 8 / Moonbase 8 / Сезон: 1 / Серии 1-6 из 6 (Джонатан Крисел) [2020, Комедия, Фантастика, WEB-DLRip-AVC] MVO [LostFilm] pb.wtf

Лунная база 8 через торрент pb.wtf

Раздают: 3 [ 0 KB/s ]
Размер: 2.43 GB | Добавлен: 3 д. назад | Торрент скачан:13 раз
Скачать  

15-11-2020 02:06 Лунная база 8 Скачать торрент  

Лунная база 8 / Moonbase 8


  • Год выпуска: 2020
  • Страна: США
  • Жанр: Комедия, Фантастика
  • Продолжительность: ~ 00:30:00 (Серия)
  • Перевод: Профессиональный многоголосый [LostFilm]
  • Режиссер: Джонатан Крисел
  • В ролях:
    М. К. Гейни, Джон Си Райли, Тим Хайдекер, Фред Армисен, Адам Ламберт, Джошуа Дэвис, Джо Абрахам, Travis Kelce, Фред Гранди, Джанет Хоскинс и другие.
    Описание:


    Когда обитатели Лунной базы 8 — симулятора работы астронавтов на спутнике Земли — обнаруживают, что на исследовательской станции закончились запасы воды, все начинает идти наперекосяк. Один из будущих астронавтов не поладил с машиной по переработке мочи, другой вознамерился утолить жажду оливковым маслом, ну а накачанный любитель футбола решил выкопать колодец и провалился под землю. Они остались втроем… Рук (Tim_Heidecker/Тим Хайдекер), Скип (Fred_Armisen/Фред Армисен) и Кэп (John_C_Reilly/Джон Си Райли) — надежда космонавтики, лузеры, мечтающие попасть на Луну, но не способные выжить даже в Аризоне. От смертельного обезвоживания их спасает шампанское, а гибель самонадеянного коллеги руководство NASA посчитало трагической случайностью. Еще неделя тренировок осталась позади, однако это только первое из испытаний, с которыми предстоит столкнуться участникам научно-исследовательского проекта на пути к мечте. Очень скоро Кэпу, Скипу и Руку придется доказывать, что они готовы к настоящему полету на Луну, не только NASA, но и самим себе.
  • Рейтинг:

    rating


  • Качество: WEB-DLRip-AVC
  • Формат: :MKV
  • Видео кодек: AVC
  • Аудио кодек: AC3
  • Видео: 1545 Кбит/сек, 1024*512 (2,000), в 23,976 (24000/1001) кадра/сек, AVC
  • Аудио №1: русский 384 Кбит/сек, 48,0 КГц, 16 бит, 2 канала, AC-3|[LostFilm]|
  • Аудио №2: английский 384 Кбит/сек, 48,0 КГц, 16 бит, 2 канала, AC-3
    «Лунная база 8» — научно-фантастическая комедия, созданная John_C_Reilly/Джоном Си Райли, Fred_Armisen/Фредом Армисеном, Tim_Heidecker/Тимом Хайдекером и Jonathan_Krisel/Джонатаном Кризелем для телеканала Showtime. Блистательной четверке комедиантов удалось не только снять остроумный камерный сериал о неудачниках, которые мечтают отправиться на Луну, но и привнести нечто новое в мир сай-фая. «Лунная база 8» предлагает свежий взгляд на набившую оскомину историю о храбрых космических путешественниках: главные герои, которых воплотили на экране Fred_Armisen/Армисен, John_C_Reilly/Райли и Tim_Heidecker/Хайдекер, — возможно, самые неквалифицированные астронавты в истории, да и до космоса им еще лететь и лететь. Нелепость ситуаций, в которых постоянно обнаруживают себя трое будущих космонавтов, мощная компанейская химия между персонажами и нескончаемый поток абсурда делают «Лунную базу 8» одним из лучших сериалов, за просмотром которого можно отдохнуть и вволю посмеяться. Руководство съемками взял на себя соавтор сценария Jonathan_Krisel/Кризель, ранее работавший над комедийно-мистической «Ghosted/Паранормальщиной».
    Внимание! Раздача ведётся путём добавления новых серий; при каждом добавлении создаётся новый торрент. Чтобы начать докачку новой серии, пользователям необходимо сделать следующее:
    (1) остановить скачивание,
    (2) удалить старый торрент у себя из клиента (старые серии удалять не надо),
    (3) скачать новый торрент и запустить его у себя в клиенте вместо старого, при этом указать клиенту путь в старую папку куда и должно происходить скачивание новых серий.

    Ваш клиент при этом должен произвести хеширование (проверку) старой папки (если не производит сам - помогите ему сделать это), и будет докачивать только те серии которых у вас ещё нет. Старые серии при этом не удаляются, а продолжают раздаваться!

    Eсли вы уже удалили старые серии, то предотвратить повторную закачку старых серий можно, отжав галочку в соответствующих местах при запуске нового торрента. По возможности, желательно не удалять старые серии как можно дольше чтобы релизёр не столько продолжал раздавать старые серии, а смог сконцентрироваться на новых.
    Общее
    Уникальный идентификатор : 196757057603117679259590003187742768558 (0x940607E91C563BADABC78A65174D7DAE)
    Полное имя : F:\Лунная база 8 (Moonbase 8) Сезон 1\Moonbase.8.S01E02.(Крысы).WEB-DLRip-AVC.LostFilm.mkv
    Формат : Matroska
    Версия формата : Version 4
    Размер файла : 442 Мбайт
    Продолжительность : 26 м. 10 с.
    Общий поток : 2360 Кбит/сек
    Программа кодирования : XviD4PSP 8.0.59
    Библиотека кодирования : Lavf58.20.100
    ErrorDetectionType : Per level 1
    ENCODING_INFO : MATROSKA,WEBM > MKV Пользовательский

    Видео
    Идентификатор : 1
    Формат : AVC
    Формат/Информация : Advanced Video Codec
    Профиль формата : High@L3.1
    Настройки формата : CABAC / 4 Ref Frames
    Параметр CABAC формата : Да
    Параметр RefFrames формата : 4 кадра
    Идентификатор кодека : V_MPEG4/ISO/AVC
    Продолжительность : 26 м. 10 с.
    Битрейт : 1545 Кбит/сек
    Номинальный битрейт : 1800 Кбит/сек
    Ширина : 1024 пикселя
    Высота : 512 пикселей
    Соотношение сторон : 2,000
    Режим частоты кадров : Постоянный
    Частота кадров : 23,976 (24000/1001) кадра/сек
    Цветовое пространство : YUV
    Субдискретизация насыщенности : 4:2:0
    Битовая глубина : 8 бит
    Тип развёртки : Прогрессивная
    Бит/(Пиксели*Кадры) : 0.123
    Размер потока : 289 Мбайт (65%)
    Библиотека кодирования : x264 core 157 r2969 d4099dd
    Настройки программы : cabac=1 / ref=3 / deblock=1:-1:-1 / analyse=0x3:0x133 / me=hex / subme=7 / psy=1 / psy_rd=1.00:0.20 / mixed_ref=1 / me_range=16 / chroma_me=1 / trellis=1 / 8x8dct=1 / cqm=0 / deadzone=21,11 / fast_pskip=1 / chroma_qp_offset=-3 / threads=9 / lookahead_threads=1 / sliced_threads=0 / nr=0 / decimate=1 / interlaced=0 / bluray_compat=0 / constrained_intra=0 / bframes=3 / b_pyramid=2 / b_adapt=2 / b_bias=0 / direct=3 / weightb=1 / open_gop=0 / weightp=2 / keyint=240 / keyint_min=24 / scenecut=40 / intra_refresh=0 / rc_lookahead=40 / rc=cbr / mbtree=1 / bitrate=1800 / ratetol=1.0 / qcomp=0.60 / qpmin=0 / qpmax=69 / qpstep=4 / vbv_maxrate=1800 / vbv_bufsize=1285 / nal_hrd=none / filler=0 / ip_ratio=1.40 / aq=1:1.00
    Default : Да
    Forced : Нет
    ENCODING_INFO : H264 > X264 CBR 1800kbps HQ

    Аудио #1
    Идентификатор : 2
    Формат : AC-3
    Формат/Информация : Audio Coding 3
    Коммерческое название : Dolby Digital
    Идентификатор кодека : A_AC3
    Продолжительность : 26 м. 10 с.
    Вид битрейта : Постоянный
    Битрейт : 384 Кбит/сек
    Каналы : 2 канала
    ChannelLayout : L R
    Частота : 48,0 КГц
    Частота кадров : 31,250 кадров/сек (1536 SPF)
    Битовая глубина : 16 бит
    Метод сжатия : С потерями
    Размер потока : 71,9 Мбайт (16%)
    ServiceKind/String : Complete Main
    Default : Да
    Forced : Нет
    ENCODING_INFO : AC3 > AC3 CBR 384kbps

    Аудио #2
    Идентификатор : 3
    Формат : AC-3
    Формат/Информация : Audio Coding 3
    Коммерческое название : Dolby Digital
    Идентификатор кодека : A_AC3
    Продолжительность : 26 м. 10 с.
    Вид битрейта : Постоянный
    Битрейт : 384 Кбит/сек
    Каналы : 2 канала
    ChannelLayout : L R
    Частота : 48,0 КГц
    Частота кадров : 31,250 кадров/сек (1536 SPF)
    Битовая глубина : 16 бит
    Метод сжатия : С потерями
    Размер потока : 71,9 Мбайт (16%)
    ServiceKind/String : Complete Main
    Default : Нет
    Forced : Нет
    ENCODING_INFO : AC3 > AC3 CBR 384kbps



    Скриншоты:
    скриншот   скриншот   скриншот   скриншот   скриншот   скриншот   скриншот  
    скриншот  
    pb.wtf



  • Скачать Лунная база 8 через торрент https://pic1.kartinco.top/images/12/ak4mf.jpg Скачать фильм Лунная база 8 через торрент бесплантно в хорошем качестве Описание: Когда обитатели Лунной базы 8 — симулятора работы астронавтов на спутнике Земли — обнаруживают, что на исследовательской станции ... 10 10 2
    Торрент: Зарегистрирован [2020-11-26 23:33] · скачан: 13 раз
    Статус: √ проверено
    Размер: 2.43 GB
    Как cкачать? Как скачать Лунная база 8 через торрент | qTorrent

    % Раздел Тема Автор DL S | L
    Зарубежные сериалы [ 1.79 GB ] Лунная база 8 / Moonbase 8 / Сезон: 1 / Серии: 1-6 из 6 [2020 WEB-DLRip] MVO [Jaskier] bober100 Скачать
    1 | 0
    Зарубежные сериалы [ 6.34 GB ] Лунная база 8 / Moonbase 8 / Сезон: 1 / Серии: 1-6 из 6 [2020 WEB-DL 720p] MVO [Jaskier] bober100 Скачать
    1 | 0
    Зарубежные сериалы [ 10.94 GB ] Лунная база 8 / Moonbase 8 / Сезон: 1 / Серии: 1-6 из 6 [2020 WEB-DL 1080p] MVO [Jaskier] bober100 Скачать
    2 | 0

    28-11-2019 20:33  

    Отключить всю рекламу на сайте

      Дорогой пользователь! Огромная просьба, поблагодарите релизера, оцените раздачу и оставьте свои комментарий, если Вы скачали Лунная база 8 через торрент бесплатно! Внесите свою лепту в развитие PiratBit!
      Комментировать посты могут только пользователи прошедшие не сложную регистрацию
      Показать сообщения:    

      Лунная база 8 через торрент
      Скачать бесплатно Лунная база 8
      Лунная база 8 скачать торрент
      Лунная база 8 смотреть онлайн
      Cкачать фильм Лунная база 8 бесплатно
      Лунная база 8 скачать торрент в хорошем качестве
      Лунная база 8 смотреть онлайн бесплатно в хорошем качестве


      Вы не можете начинать темы
      Вы не можете отвечать на сообщения
      Вы не можете редактировать свои сообщения
      Вы не можете удалять свои сообщения
      Вы не можете голосовать в опросах
      Вы не можете прикреплять файлы к сообщениям
      Вы можете скачивать файлы