Доктор Стрэндж

Лицензия

Добыча

Дубляж

Дом дракона

1 сезон

Тор

Дубляж

В эфире

Дубляж

Там, где раки поют

MVO

Властелин колец

1 сезон

GLOBAL

pack

Рекомендуем

30

Пиратка

ВАЖНО

ВАЖНО

Ghostwire

Пиратка

jed

RePack

nioh2

RePack

RDR2

RePack

NEED FOR SPEED™ PAYBACK

RePack

скачать торрент

Кинопоиск HD

Острые козырьки 6 сезон

6 сезон

FAR CRY 6

RePack

скачать торрент

Лицензия

скачать торрент

MVO

1

1 сезон

скачать торрент

1 сезон

скачать торрент

Лицензия

  

2067: Петля времени / 2067 (Сет Ларни) [2020, Фантастика, драма, BD Remux 1080p] Дубляж [iTunes]

2067: Петля времени через торрент pb.wtf

Размер: 25.16 GB | Добавлен: 2 года назад | Торрент скачан:74 раза
Смотреть онлайн | Скачать   

15-11-2020 05:23 2067: Петля времени Скачать торрент  

2067: Петля времени | 2067
Год выпуска: 2020
Страна: Австралия
Студия: Arcadia, Elevate Production Finance, Futurism Studios
Жанр: Фантастика, драма
Продолжительность: 01:54:18
Перевод: Дублированный | iTunes
Субтитры: Английские

Режиссер: Сет Ларни

rating

В ролях: Коди Смит-МакФи, Райан Квантен, Лианна Уолсмен, Дебора Мэйлман, Сана а Шейк, Финн Литтл, Дэмиэн Уолш-Хоулинг, Энди МакФи, Аарон Гленнэйн, Мэтт Тестро

Описание: 2067 год. Добро пожаловать в мир, где царит хаос: исчезли леса и растения, вымерли дикие животные, а люди оказались на грани вымирания из-за отсутствия кислорода. Неожиданное послание из будущего «Отправьте Итана Уайта» — последняя надежда человечества. Кто такой Итан Уайт? Сможет ли он спасти мир?

Качество: BD Remux 1080p
Формат: MKV

Видео: MPEG-4 AVC, 1920x1080, 27.7 Mbit/s, 23.976 fps
Аудио#1: 48 kHz, AC3, 5.1, 384 Kbps | iTunes | RUS |
Аудио#2: 48 kHz, DTS-HD MA, 5.1, 3394 Kbps | Оригинал | ENG |
скриншот  скриншот  скриншот  скриншот  скриншот  

General
Unique ID : 95528783536269224677668158312320962150 (0x47DE2CAA7B38C333B95A4CF010118E66)
Complete name : D:Video1112067.2020.BDREMUX.1080p.seleZen.mkv
Format : Matroska
Format version : Version 4
File size : 25.2 GiB
Duration : 1 h 54 min
Overall bit rate mode : Variable
Overall bit rate : 31.5 Mb/s
Movie name : 2067 2020 from seleZen
Encoded date : UTC 2020-11-14 21:17:35
Writing application : mkvmerge v40.0.0 ('Old Town Road + Pony') 64-bit
Writing library : libebml v1.3.9 + libmatroska v1.5.2

Video
ID : 1
Format : AVC
Format/Info : Advanced Video Codec
Format profile : [email protected]
Format settings : CABAC / 4 Ref Frames
Format settings, CABAC : Yes
Format settings, Reference : 4 frames
Codec ID : V_MPEG4/ISO/AVC
Duration : 1 h 54 min
Bit rate mode : Variable
Bit rate : 27.7 Mb/s
Maximum bit rate : 36.0 Mb/s
Width : 1 920 pixels
Height : 1 080 pixels
Display aspect ratio : 16:9
Frame rate mode : Constant
Frame rate : 23.976 (24000/1001) FPS
Color space : YUV
Chroma subsampling : 4:2:0
Bit depth : 8 bits
Scan type : Progressive
Bits/(Pixel*Frame) : 0.558
Stream size : 22.1 GiB (88%)
Language : English
Default : Yes
Forced : No

Audio #1
ID : 2
Format : AC-3
Format/Info : Audio Coding 3
Commercial name : Dolby Digital
Codec ID : A_AC3
Duration : 1 h 54 min
Bit rate mode : Constant
Bit rate : 384 kb/s
Channel(s) : 6 channels
Channel layout : L R C LFE Ls Rs
Sampling rate : 48.0 kHz
Frame rate : 31.250 FPS (1536 SPF)
Compression mode : Lossy
Stream size : 314 MiB (1%)
Title : iTunes
Language : Russian
Service kind : Complete Main
Default : Yes
Forced : Yes

Audio #2
ID : 3
Format : DTS XLL
Format/Info : Digital Theater Systems
Commercial name : DTS-HD Master Audio
Codec ID : A_DTS
Duration : 1 h 54 min
Bit rate mode : Variable
Bit rate : 3 394 kb/s
Channel(s) : 6 channels
Channel layout : C L R Ls Rs LFE
Sampling rate : 48.0 kHz
Frame rate : 93.750 FPS (512 SPF)
Bit depth : 24 bits
Compression mode : Lossless
Stream size : 2.71 GiB (11%)
Title : Original
Language : English
Default : No
Forced : No

Text
ID : 4
Format : UTF-8
Codec ID : S_TEXT/UTF8
Codec ID/Info : UTF-8 Plain Text
Duration : 1 h 50 min
Bit rate : 45 b/s
Count of elements : 1352
Stream size : 36.8 KiB (0%)
Title : SDH
Language : English
Default : No
Forced : No

Menu
00:00:00.000 : en:Chapter 01
00:18:22.435 : en:Chapter 02
00:36:01.534 : en:Chapter 03
01:01:42.991 : en:Chapter 04
01:15:35.406 : en:Chapter 05
01:24:37.239 : en:Chapter 06
01:36:34.372 : en:Chapter 07
01:47:25.939 : en:Chapter 08




Скачать 2067: Петля времени через торрент https://i114.fastpic.ru/big/2020/1111/4f/e04cbd6af70e9a317b04931331527f4f.jpg Скачать, смотреть онлайн 2067: Петля времени бесплантно в хорошем качестве Описание: 2067 год. Добро пожаловать в мир, где царит хаос: исчезли леса и растения, вымерли дикие животные, а люди оказались на грани ... 8.7 10 7
Info! Золотая раздача, скачанное не засчитывается.
Торрент: Зарегистрирован [2020-11-15 05:23] · скачан: 74 раз
Статус: √ проверено
Размер: 25.16 GB
Как cкачать? Как скачать 2067: Петля времени через торрент | UTorrent

% Раздел Тема Автор DL S | L
Фильмы (WEB-DL 720p, 1080p) [ 3.52 GB ] 2067: Петля времени / 2067 | iTunes | 720p bober100 Скачать
1 | 0
Фильмы [HD 720p, 1080p] (Хороший звук DUB, MVO) [ 4.3 GB ] 2067: Петля времени / 2067 | iTunes | 720p bober100 Скачать
2 | 0
Фильмы (WEB-DL 720p, 1080p) [ 7.28 GB ] 2067: Петля времени / 2067 | iTunes | 1080p bober100 Скачать
1 | 0
Фильмы 2019-2020 [DVDrip, WEB-DLRip, HDrip] (DUB, MVO) [ 1.46 GB ] 2067: Петля времени / 2067 | Лицензия | HDRip Twi7ter Скачать
1 | 0
Фильмы 2019-2020 [DVDrip, WEB-DLRip, HDrip] (DUB, MVO) [ 2.13 GB ] 2067: Петля времени / 2067 | Лицензия | HDRip Twi7ter Скачать
2 | 0
Фильмы [HD 720p, 1080p] (Хороший звук DUB, MVO) [ 11.17 GB ] 2067: Петля времени / 2067 | iTunes | 1080p bober100 Скачать
2 | 0
Фильмы 2019-2020 [DVDrip, WEB-DLRip, HDrip] (DUB, MVO) [ 1.46 GB ] 2067: Петля времени / 2067 | iTunes | HDRip bober100 Скачать
1 | 0

28-11-2019 20:33  


Отключить вcю реклaмy на сайте, в т.ч. и в плеере онлайн просмотра!

    Дорогой пользователь! Огромная просьба, поблагодарите релизера, оцените раздачу и оставьте свои комментарий, если Вы скачали 2067: Петля времени через торрент бесплатно!!
    Комментировать посты могут только пользователи прошедшие не сложную регистрацию
    Показать сообщения:    


    2067: Петля времени через торрент
    Скачать бесплатно 2067: Петля времени
    2067: Петля времени скачать торрент
    2067: Петля времени смотреть онлайн
    Cкачать фильм 2067: Петля времени бесплатно
    2067: Петля времени скачать торрент в хорошем качестве
    2067: Петля времени смотреть онлайн бесплатно в хорошем качестве
    Вы не можете начинать темы
    Вы не можете отвечать на сообщения
    Вы не можете редактировать свои сообщения
    Вы не можете удалять свои сообщения
    Вы не можете голосовать в опросах
    Вы не можете прикреплять файлы к сообщениям
    Вы можете скачивать файлы
    2067: Петля времени / 2067 [2020, Фантастика, драма, BD Remux 1080p] Дубляж [iTunes] смотреть онлайн, скачать торрент picoco.icu