Anonymous, доброй ночи, присоединяйтесь к нам в Telegram!, здесь всегда актуальный адрес сайта, оперативная поддержка и многое другое!

>

5.6

iTunes

7.4

iTunes

7.9

MVO

1

7.7

1 сезон

6.8

iTunes

7.3

1 сезон

13

6.7

1 сезон

8.3

RePack

30

ULTIMATE

pack

9.9

Лицензия

ВАЖНО

ИГРА 18+

pack

7.3

RePack

MK11

7.7

RePack

jed

7.8

RePack

fifa19

8.5

RePack

RDR2

RePack

NEED FOR SPEED™ PAYBACK

4 сезон

9 сезон

Бесстыжие 9 сезон

Все сериалы

все сериалы на PB.wtf

RePack

FAR CRY 5

Anonymous, доброй ночи, мы катастрофически не успеваем собрать деньги на оплату серверов, помогите нам пожалуйста 5,10,15р., для нас важна любая помощь . В качестве благодарности мы отключим Вам всю рекламу на сайте (укажите свой ник в строку Ваше имя)!

×
  
Magnet ссылка

Джон Уик: Трилогия / John Wick: Тrilogy (Дэвид Литч, Чад Стахелски) [2014-2019, боевик, триллер, криминал, BDRip - HEVC 1080p 10 bit 60 FPS, DUB] pb.wtf

Джон Уик: Трилогия через торрент pb.wtf

Раздают: 6 [ 0 KB/s ] Качают: 4 [ 0 KB/s ]
Размер: 11.92 GB | Добавлен: 11 мес. назад | Торрент скачан:222 раза
Смотреть онлайн Джон Уик: Трилогия | Скачать    Ребята, помогите собрать деньги на оплату серверов!!!

15-11-2020 16:09 Джон Уик: Трилогия Скачать торрент  

«Джон Уик» (англ. John Wick) — американская медиафраншиза, созданная продюсером Бэзилом Иваником, сценаристом Дереком Колстадом и компанией Summit Entertainment (Lionsgate). Основана на киносерии из трёх боевиков — Джон Уик (2014), Джон Уик 2 (2017) и Джон Уик 3 (2019), которые рассказывают историю одноимённого наёмного убийцы в отставке. Каждый из фильмов был спродюсирован Иваником и срежиссирован Чадом Стахелски по сценарию Колстада. На должности не указанного в титрах сорежиссёра первого фильма также выступил Дэвид Литч. Главную роль в киносерии исполнил Киану Ривз, в прошлом работавший со Стахелски и Литчем над серией «Матрица».

Джон Уик - John Wick «Его лучше не трогать»

Год выпуска: 2014
Страна: США, Китай
Жанр: боевик, триллер, криминальный

Продолжительность: 01:41:12
Перевод: Дубляж
Субтитры: нет

Режиссер: Чад Стахелски, Дэвид Литч

В ролях: Киану Ривз (John Wick), Микаэл Нюквист (Viggo Tarasov), Алфи Аллен (Iosef Tarasov), Уиллем Дефо (Marcus), Дин Уинтерс (Avi), Эдрианн Палики (Ms. Perkins), Омер Барнеа (Gregori), Тоби Леонард Мур (Victor), Дэниэл Бернхард (Kirill), Бриджет Мойнэхэн (Helen), Джон Легуизамо (Aurelio), Иэн МакШейн (Winston)

Описание:
Джон Уик - на первый взгляд, самый обычный среднестатистический американец, который ведет спокойную мирную жизнь. Однако мало кто знает, что он был наёмным убийцей, причём одним из лучших профессионалов в своём деле. После того как сынок главы бандитской группы со своими приятелями угоняет его любимый «Мустанг» 1969 года выпуска, при этом убив его собаку Дейзи, которая была подарком недавно почившей супруги, Джон вынужден вернуться к своему прошлому. Теперь Уик начинает охоту за теми, кто имел неосторожность перейти ему дорогу, и он готов на всё, чтобы отомстить.

Мировая премьера: 19 сентября 2014


Качество: BDRip 1080p by DD2D3
Формат: MKV
Видео кодек: V_MPEGH/ISO/HEVC
Аудио кодек: AC3
Видео: V_MPEGH/ISO/HEVC; 1920x800 (2.40:1); 4002 Kbps; 59,940 fps; 0,043 bpp
Аудио: русский; AC3; 448 Kbps; CBR; 6 ch
Навигация по главам: есть



General
Unique ID : 172059858731348932385535445433563107769 (0x817185FE93809DF98D5EAF70000651B9)
Complete name : D:\John Wick Тrilogy (2014-2019) BDRip - HEVC 1080p 10 bit 60 FPS\John Wick. (2014) BDRip - HEVC 1080p 10 bit 60 FPS.mkv
Format : Matroska
Format version : Version 4
File size : 3.15 GiB
Duration : 1 h 41 min
Overall bit rate : 4 455 kb/s
Movie name : Rip by DD2D3
Encoded date : UTC 2020-11-15 13:19:50
Writing application : mkvmerge v10.0.0 ('To Drown In You') 32bit
Writing library : libebml v1.3.4 + libmatroska v1.4.5
Attachments : poster

Video
ID : 1
Format : HEVC
Format/Info : High Efficiency Video Coding
Format profile : Main 10@L4.1@Main
Codec ID : V_MPEGH/ISO/HEVC
Duration : 1 h 41 min
Bit rate : 4 002 kb/s
Width : 1 920 pixels
Height : 800 pixels
Display aspect ratio : 2.40:1
Frame rate mode : Constant
Frame rate : 59.940 (60000/1001) FPS
Color space : YUV
Chroma subsampling : 4:2:0
Bit depth : 10 bits
Bits/(Pixel*Frame) : 0.043
Stream size : 2.83 GiB (90%)
Writing library : x265 2.3+33-0b7d54dbb71a87a0:[Windows][MSVC 1800][64 bit] 10bit: KG7x [x265.ru]
Encoding settings : cpuid=1173503 / frame-threads=2 / numa-pools=4 / wpp / no-pmode / no-pme / no-psnr / no-ssim / log-level=2 / input-csp=1 / input-res=1920x800 / interlace=0 / total-frames=364006 / level-idc=41 / high-tier=1 / uhd-bd=0 / ref=3 / no-allow-non-conformance / no-repeat-headers / annexb / no-aud / no-hrd / info / hash=0 / no-temporal-layers / open-gop / min-keyint=25 / keyint=250 / bframes=4 / b-adapt=2 / b-pyramid / bframe-bias=0 / rc-lookahead=20 / lookahead-slices=5 / scenecut=40 / no-intra-refresh / ctu=64 / min-cu-size=8 / no-rect / no-amp / max-tu-size=32 / tu-inter-depth=1 / tu-intra-depth=1 / limit-tu=0 / rdoq-level=0 / dynamic-rd=0.00 / no-ssim-rd / signhide / no-tskip / nr-intra=0 / nr-inter=0 / no-constrained-intra / strong-intra-smoothing / max-merge=2 / limit-refs=3 / no-limit-modes / me=1 / subme=2 / merange=57 / temporal-mvp / weightp / no-weightb / no-analyze-src-pics / deblock=0:0 / no-sao / no-sao-non-deblock / rd=3 / no-early-skip / no-rskip / no-fast-intra / no-tskip-fast / no-cu-lossless / no-b-intra / rdpenalty=0 / psy-rd=4.00 / psy-rdoq=0.00 / no-rd-refine / analysis-mode=0 / no-lossless / cbqpoffs=0 / crqpoffs=0 / rc=abr / bitrate=4000 / qcomp=0.60 / qpstep=1 / stats-write=0 / stats-read=2 / cplxblur=20.0 / qblur=0.5 / ipratio=1.10 / pbratio=1.00 / aq-mode=0 / aq-strength=0.00 / no-cutree / zone-count=0 / no-strict-cbr / qg-size=64 / rc-grain / qpmax=69 / qpmin=0 / sar=1 / overscan=0 / videoformat=5 / range=0 / colorprim=2 / transfer=2 / colormatrix=2 / chromaloc=0 / display-window=0 / max-cll=0,0 / min-luma=0 / max-luma=1023 / log2-max-poc-lsb=8 / vui-timing-info / vui-hrd-info / slices=1 / opt-qp-pps / opt-ref-list-length-pps / no-multi-pass-opt-rps / scenecut-bias=0.05 / no-opt-cu-delta-qp / no-aq-motion / no-hdr / no-hdr-opt / refine-level=5 / no-limit-sao
Default : Yes
Forced : No

Audio
ID : 2
Format : AC-3
Format/Info : Audio Coding 3
Commercial name : Dolby Digital
Codec ID : A_AC3
Duration : 1 h 41 min
Bit rate mode : Constant
Bit rate : 448 kb/s
Channel(s) : 6 channels
Channel layout : L R C LFE Ls Rs
Sampling rate : 48.0 kHz
Frame rate : 31.250 FPS (1536 SPF)
Compression mode : Lossy
Stream size : 324 MiB (10%)
Title : DUB
Language : Russian
Service kind : Complete Main
Default : Yes
Forced : No

Menu
00:00:00.000 : en:Chapter 1
00:04:56.713 : en:Chapter 2
00:12:21.073 : en:Chapter 3
00:17:06.942 : en:Chapter 4
00:26:24.374 : en:Chapter 5
00:32:39.457 : en:Chapter 6
00:36:23.806 : en:Chapter 7
00:42:15.241 : en:Chapter 8
00:45:32.479 : en:Chapter 9
00:55:01.715 : en:Chapter 10
00:59:26.771 : en:Chapter 11
01:06:12.635 : en:Chapter 12
01:14:15.117 : en:Chapter 13
01:19:12.247 : en:Chapter 14
01:27:28.993 : en:Chapter 15
01:32:23.996 : en:Chapter 16


скриншот   скриншот   скриншот   скриншот  


Джон Уик 2 - John Wick Chapter Two«Never stab the devil in the back»

Год выпуска: 2017
Страна: США, Гонконг
Жанр: боевик, триллер, криминальный

Продолжительность: 02:02:22
Перевод: Дубляж
Субтитры: нет

Режиссер: Чад Стахелски

В ролях: Киану Ривз, Риккардо Скамарчо, Иэн МакШейн, Руби Роуз, Коммон, Клаудия Джерини, Лэнс Реддик, Лоренс Фишбёрн, Тобиаш Сигал, Джон Легуизамо, Дэвид Патрик Келли, Петер Стормаре

Описание:
Когда бывший коллега Джона решает взять под свой контроль таинственную гильдию убийц, Уик вынужден выйти из отставки. Ведомый кровавой клятвой Джон отправляется в Рим, где ему придется сразиться с одними из самых опасных киллеров в мире.

Мировая премьера: 30 января 2017


Качество: BDRip 1080p by DD2D3
Формат: MKV
Видео кодек: V_MPEGH/ISO/HEVC
Аудио кодек: DTS
Видео: V_MPEGH/ISO/HEVC; 1920x800 (2.40:1); 4003 Kbps; 59,940 fps; 0,043 bpp
Аудио: русский; DTS; 1536 Kbps; CBR; 6 ch; 24 bit
Навигация по главам: есть



General
Unique ID : 175932751103261731011220285733964188521 (0x845B6A54B18764E5BAFB4FC05B318B69)
Complete name : D:\John Wick Тrilogy (2014-2019) BDRip - HEVC 1080p 10 bit 60 FPS\John Wick. Chapter 2 (2017) BDRip - HEVC 1080p 10 bit 60 FPS.mkv
Format : Matroska
Format version : Version 4
File size : 4.74 GiB
Duration : 2 h 2 min
Overall bit rate : 5 545 kb/s
Movie name : Rip by DD2D3
Encoded date : UTC 2020-11-15 13:26:14
Writing application : mkvmerge v10.0.0 ('To Drown In You') 32bit
Writing library : libebml v1.3.4 + libmatroska v1.4.5
Attachments : poster

Video
ID : 1
Format : HEVC
Format/Info : High Efficiency Video Coding
Format profile : Main@L4.1@Main
Codec ID : V_MPEGH/ISO/HEVC
Duration : 2 h 2 min
Bit rate : 4 003 kb/s
Width : 1 920 pixels
Height : 800 pixels
Display aspect ratio : 2.40:1
Frame rate mode : Constant
Frame rate : 59.940 (60000/1001) FPS
Color space : YUV
Chroma subsampling : 4:2:0
Bit depth : 8 bits
Bits/(Pixel*Frame) : 0.043
Stream size : 3.42 GiB (72%)
Writing library : x265 2.3+33-0b7d54dbb71a87a0:[Windows][MSVC 1800][64 bit] 8bit: KG7x [x265.ru]
Encoding settings : cpuid=1173503 / frame-threads=2 / numa-pools=4 / wpp / no-pmode / no-pme / no-psnr / no-ssim / log-level=2 / input-csp=1 / input-res=1920x800 / interlace=0 / total-frames=440098 / level-idc=41 / high-tier=1 / uhd-bd=0 / ref=3 / no-allow-non-conformance / no-repeat-headers / annexb / no-aud / no-hrd / info / hash=0 / no-temporal-layers / open-gop / min-keyint=25 / keyint=250 / bframes=4 / b-adapt=0 / b-pyramid / bframe-bias=0 / rc-lookahead=15 / lookahead-slices=5 / scenecut=40 / no-intra-refresh / ctu=64 / min-cu-size=8 / no-rect / no-amp / max-tu-size=32 / tu-inter-depth=1 / tu-intra-depth=1 / limit-tu=0 / rdoq-level=0 / dynamic-rd=0.00 / no-ssim-rd / signhide / no-tskip / nr-intra=0 / nr-inter=0 / no-constrained-intra / strong-intra-smoothing / max-merge=2 / limit-refs=3 / no-limit-modes / me=1 / subme=2 / merange=57 / temporal-mvp / weightp / no-weightb / no-analyze-src-pics / deblock=0:0 / no-sao / no-sao-non-deblock / rd=2 / no-early-skip / no-rskip / fast-intra / no-tskip-fast / no-cu-lossless / no-b-intra / rdpenalty=0 / psy-rd=4.00 / psy-rdoq=0.00 / no-rd-refine / analysis-mode=0 / no-lossless / cbqpoffs=0 / crqpoffs=0 / rc=abr / bitrate=4000 / qcomp=0.60 / qpstep=1 / stats-write=0 / stats-read=2 / cplxblur=20.0 / qblur=0.5 / ipratio=1.10 / pbratio=1.00 / aq-mode=0 / aq-strength=0.00 / no-cutree / zone-count=0 / no-strict-cbr / qg-size=64 / rc-grain / qpmax=69 / qpmin=0 / sar=1 / overscan=0 / videoformat=5 / range=0 / colorprim=2 / transfer=2 / colormatrix=2 / chromaloc=0 / display-window=0 / max-cll=0,0 / min-luma=0 / max-luma=255 / log2-max-poc-lsb=8 / vui-timing-info / vui-hrd-info / slices=1 / opt-qp-pps / opt-ref-list-length-pps / no-multi-pass-opt-rps / scenecut-bias=0.05 / no-opt-cu-delta-qp / no-aq-motion / no-hdr / no-hdr-opt / refine-level=5 / no-limit-sao
Default : Yes
Forced : No

Audio
ID : 2
Format : DTS
Format/Info : Digital Theater Systems
Codec ID : A_DTS
Duration : 2 h 2 min
Bit rate mode : Constant
Bit rate : 1 536 kb/s
Channel(s) : 6 channels
Channel layout : C L R Ls Rs LFE
Sampling rate : 48.0 kHz
Frame rate : 93.750 FPS (512 SPF)
Bit depth : 24 bits
Compression mode : Lossy
Stream size : 1.31 GiB (28%)
Title : Dub [License]
Language : Russian
Default : Yes
Forced : No

Menu
00:00:00.000 : en:00:00:00.000
00:06:31.683 : en:00:06:31.683
00:16:57.934 : en:00:16:57.934
00:26:35.594 : en:00:26:35.594
00:34:38.034 : en:00:34:38.034
00:42:07.817 : en:00:42:07.817
00:48:07.051 : en:00:48:07.051
00:56:41.648 : en:00:56:41.648
01:01:42.782 : en:01:01:42.782
01:10:27.682 : en:01:10:27.682
01:17:15.923 : en:01:17:15.923
01:24:22.641 : en:01:24:22.641
01:32:11.234 : en:01:32:11.234
01:40:01.329 : en:01:40:01.329
01:46:34.763 : en:01:46:34.763
01:54:01.042 : en:01:54:01.042


скриншот   скриншот   скриншот   скриншот  


Джон Уик 3 - John Wick Chapter 3. Parabellum«Тик-так, мистер Уик»

Год выпуска: 2019
Страна: США
Жанр: боевик, триллер, криминальный

Продолжительность: 02:11:14
Перевод: Дубляж
Субтитры: нет

Режиссер: Чад Стахелски

В ролях: Киану Ривз, Холли Берри, Иэн МакШейн, Лоренс Фишбёрн, Марк Дакаскос, Азия Кейт Диллон, Лэнс Реддик, Тобиаш Сигал, Анжелика Хьюстон, Саид Тагмауи

Описание:
Суперкиллер Джон Уик после нарушения кодекса тайной гильдии ассасинов получает статус изгоя — экскомьюникадо. За его голову назначена цена в 14 миллионов долларов, и армия самых жестоких профессиональных убийц со всего мира открывает на него кровавую охоту.

Мировая премьера: 15 мая 2019


Качество: BDRip 1080p by DD2D3
Формат: MKV
Видео кодек: V_MPEGH/ISO/HEVC
Аудио кодек: AC3
Видео: V_MPEGH/ISO/HEVC; 1920x800 (2.40:1); 4005 Kbps; 60 fps; 0,043 bpp
Аудио: русский; AC3; 384 Kbps; CBR; 6 ch
Навигация по главам: есть



General
Unique ID : 250068343668119731268289259310128754188 (0xBC21693F401C51A0A5364A6C42C2EE0C)
Complete name : D:\John Wick Тrilogy (2014-2019) BDRip - HEVC 1080p 10 bit 60 FPS\John Wick. Chapter 3. Parabellum (2019) BDRip - HEVC 1080p 10 bit 60 FPS.mkv
Format : Matroska
Format version : Version 4
File size : 4.03 GiB
Duration : 2 h 11 min
Overall bit rate : 4 394 kb/s
Movie name : Rip by DD2D3
Encoded date : UTC 2020-11-15 13:31:13
Writing application : mkvmerge v10.0.0 ('To Drown In You') 32bit
Writing library : libebml v1.3.4 + libmatroska v1.4.5
Attachments : poster

Video
ID : 1
Format : HEVC
Format/Info : High Efficiency Video Coding
Format profile : Main 10@L4.1@Main
Codec ID : V_MPEGH/ISO/HEVC
Duration : 2 h 11 min
Bit rate : 4 005 kb/s
Width : 1 920 pixels
Height : 800 pixels
Display aspect ratio : 2.40:1
Frame rate mode : Constant
Frame rate : 60.000 FPS
Color space : YUV
Chroma subsampling : 4:2:0
Bit depth : 10 bits
Bits/(Pixel*Frame) : 0.043
Stream size : 3.67 GiB (91%)
Writing library : x265 2.3+33-0b7d54dbb71a87a0:[Windows][MSVC 1800][64 bit] 10bit: KG7x [x265.ru]
Encoding settings : cpuid=1173503 / frame-threads=2 / numa-pools=4 / wpp / no-pmode / no-pme / no-psnr / no-ssim / log-level=2 / input-csp=1 / input-res=1920x800 / interlace=0 / total-frames=472498 / level-idc=41 / high-tier=1 / uhd-bd=0 / ref=3 / no-allow-non-conformance / no-repeat-headers / annexb / no-aud / no-hrd / info / hash=0 / no-temporal-layers / open-gop / min-keyint=25 / keyint=250 / bframes=4 / b-adapt=2 / b-pyramid / bframe-bias=0 / rc-lookahead=20 / lookahead-slices=5 / scenecut=40 / no-intra-refresh / ctu=64 / min-cu-size=8 / no-rect / no-amp / max-tu-size=32 / tu-inter-depth=1 / tu-intra-depth=1 / limit-tu=0 / rdoq-level=0 / dynamic-rd=0.00 / no-ssim-rd / signhide / no-tskip / nr-intra=0 / nr-inter=0 / no-constrained-intra / strong-intra-smoothing / max-merge=2 / limit-refs=3 / no-limit-modes / me=1 / subme=2 / merange=57 / temporal-mvp / weightp / no-weightb / no-analyze-src-pics / deblock=0:0 / no-sao / no-sao-non-deblock / rd=3 / no-early-skip / no-rskip / no-fast-intra / no-tskip-fast / no-cu-lossless / no-b-intra / rdpenalty=0 / psy-rd=4.00 / psy-rdoq=0.00 / no-rd-refine / analysis-mode=0 / no-lossless / cbqpoffs=0 / crqpoffs=0 / rc=abr / bitrate=4000 / qcomp=0.60 / qpstep=1 / stats-write=0 / stats-read=2 / cplxblur=20.0 / qblur=0.5 / ipratio=1.10 / pbratio=1.00 / aq-mode=0 / aq-strength=0.00 / no-cutree / zone-count=0 / no-strict-cbr / qg-size=64 / rc-grain / qpmax=69 / qpmin=0 / sar=1 / overscan=0 / videoformat=5 / range=0 / colorprim=2 / transfer=2 / colormatrix=2 / chromaloc=0 / display-window=0 / max-cll=0,0 / min-luma=0 / max-luma=1023 / log2-max-poc-lsb=8 / vui-timing-info / vui-hrd-info / slices=1 / opt-qp-pps / opt-ref-list-length-pps / no-multi-pass-opt-rps / scenecut-bias=0.05 / no-opt-cu-delta-qp / no-aq-motion / no-hdr / no-hdr-opt / refine-level=5 / no-limit-sao
Default : Yes
Forced : No

Audio
ID : 2
Format : AC-3
Format/Info : Audio Coding 3
Commercial name : Dolby Digital
Codec ID : A_AC3
Duration : 2 h 11 min
Bit rate mode : Constant
Bit rate : 384 kb/s
Channel(s) : 6 channels
Channel layout : L R C LFE Ls Rs
Sampling rate : 48.0 kHz
Frame rate : 31.250 FPS (1536 SPF)
Compression mode : Lossy
Stream size : 360 MiB (9%)
Title : Russian Dub iTunes
Language : Russian
Service kind : Complete Main
Default : Yes
Forced : No

Menu
00:00:00.000 : en:Глава 01
00:09:18.000 : en:Глава 02
00:14:37.583 : en:Глава 03
00:24:21.417 : en:Глава 04
00:31:56.083 : en:Глава 05
00:38:20.708 : en:Глава 06
00:50:56.042 : en:Глава 07
01:03:24.333 : en:Глава 08
01:21:03.500 : en:Глава 09
01:41:57.375 : en:Глава 10
01:56:23.833 : en:Глава 11
02:02:22.958 : en:Глава 12


скриншот   скриншот   скриншот   скриншот  


pb.wtf



Скачать Джон Уик: Трилогия через торрент https://funkyimg.com/i/38DPf.jpeg Скачать, смотреть онлайн Джон Уик: Трилогия бесплантно в хорошем качестве Описание: Джон Уик - на первый взгляд, самый обычный среднестатистический американец, который ведет спокойную мирную жизнь. Однако мало кто ... 10 10 17
Info! Золотая раздача, скачанное не засчитывается.
Торрент: Зарегистрирован [2020-11-15 16:09] · скачан: 222 раз
Статус: √ проверено
Размер: 11.92 GB
Как cкачать? Как скачать Джон Уик: Трилогия через торрент | UTorrent

% Раздел Тема Автор DL S | L
Ultra HD (UHD: 2K, 4K, 8K) — видео сверхвысокой чёткости [ 176.63 GB ] Джон Уик / John Wick: Тrilogy [2014-2019 UHD BDRemux 2160p] sheker187 Скачать
1 | 0

28-11-2019 20:33  

Отключить всю рекламу на сайте

15-11-2020 21:24 Джон Уик: Трилогия Скачать торрент  

Если у кого-то есть вопросы, какая версия лучше по качеству. Разница между этой скомпилированной версией и отдельными торрентами в том, что в ней есть только DUB, а не аудио AVO.

Битрейт у обоих одинаковый. их предупреждают.

отличный торрент, мне уже захотелось снова увидеть трилогиюpb.wtf



19-11-2020 13:20 Джон Уик: Трилогия Скачать торрент  

Можно получить ответ от автора раздачи на вопрос, что понимается под 10 bit в названии данного релиза и как это соотносится с фактическим описанием каждого параметра ВИДЕО из трилогии? Заранее спасибо!pb.wtf



19-11-2020 16:11 Джон Уик: Трилогия Скачать торрент  

10-битное цветовое кодированиеpb.wtf



21-11-2020 05:06 Джон Уик: Трилогия Скачать торрент  

Onanas писал(а):

Можно получить ответ от автора раздачи на вопрос, что понимается под 10 bit в названии данного релиза и как это соотносится с фактическим описанием каждого параметра ВИДЕО из трилогии? Заранее спасибо!

согласно моему опыту кодирования видео, используется 10 бит, чтобы избежать артефакта полосатости при низком битрейте

где это наиболее заметно в фильмах с очень темными сценами и в аниме.

Ошибочно думать, что использование 10 бит обеспечивает более высокое качество, потому что источником всегда является 8-битное видео.pb.wtf



01-12-2020 22:36 Джон Уик: Трилогия Скачать торрент  

pb.wtf





Последний раз редактировалось: V&S (2021-03-07 22:20), всего редактировалось 1 раз

02-12-2020 08:04 Джон Уик: Трилогия Скачать торрент  

dd2d3, Пересмотрел на днях Уика! Качество гуд! Хотя для полного кайфа не хватает субтитров, так как во всех частях присутствуют встроенные субы без озвучки во многих сценах на английском! Или как их там правильно называют?
Ну я думаю вы поняли про что я!pb.wtf



05-12-2020 22:14 Джон Уик: Трилогия Скачать торрент  

михакруг писал(а):

dd2d3, Пересмотрел на днях Уика! Качество гуд! Хотя для полного кайфа не хватает субтитров, так как во всех частях присутствуют встроенные субы без озвучки во многих сценах на английском! Или как их там правильно называют?
Ну я думаю вы поняли про что я!

Форсированные иногда требуются, думаю не в этом случае, однако они не мешают.pb.wtf



28-08-2021 14:49 Джон Уик: Трилогия Скачать торрент  

dd2d3, встаньте на раздачуpb.wtf



    Дорогой пользователь! Огромная просьба, поблагодарите релизера, оцените раздачу и оставьте свои комментарий, если Вы скачали Джон Уик: Трилогия через торрент бесплатно!
    Комментировать посты могут только пользователи прошедшие не сложную регистрацию
    Показать сообщения:    

    Джон Уик: Трилогия через торрент
    Скачать бесплатно Джон Уик: Трилогия
    Джон Уик: Трилогия скачать торрент
    Джон Уик: Трилогия смотреть онлайн
    Cкачать фильм Джон Уик: Трилогия бесплатно
    Джон Уик: Трилогия скачать торрент в хорошем качестве
    Джон Уик: Трилогия смотреть онлайн бесплатно в хорошем качестве


    Вы не можете начинать темы
    Вы не можете отвечать на сообщения
    Вы не можете редактировать свои сообщения
    Вы не можете удалять свои сообщения
    Вы не можете голосовать в опросах
    Вы не можете прикреплять файлы к сообщениям
    Вы можете скачивать файлы