Ссылка на приватное зеркало нашего сайта всего за 1$. Внимание количество ограничено!!!

2 сезон

iTunes

1 сезон

1

2 сезон

2 сезон

iTunes

1 сезон

RePack

30

Ultimate

ВАЖНО

ИГРА 18+

pack

RePack

MK11
pack

Забери бонус

RePack

jed

!!Акция!!

Alien_Rage

RePack

fifa19

RePack

Assassins Creed: Odyssey

RePack

NEED FOR SPEED™ PAYBACK

4 сезон

9 сезон

Бесстыжие 9 сезон

Все сериалы

все сериалы на PB.wtf

RePack

FAR CRY 5
  

Гнездо / The Nest (Шон Дуркин) [2020, Драма, мелодрама, WEB-DL 1080p] [AMAZON Version] DUB [iTunes] pb.wtf

Гнездо через торрент pb.wtf

Раздают: 2 [ 9 KB/s ]
Размер: 7.31 GB | Добавлен: 7 д. назад | Торрент скачан:47 раз
Скачать  

18-11-2020 08:15 Гнездо Скачать торрент  

Гнездо | The Nest
Год выпуска: 2020
Страна: Великобритания, Канада
Студия: Element Pictures, BBC Films, Elevation Pictures
Жанр: Драма, мелодрама
Продолжительность: 01:47:28
Перевод: Дублированный | iTunes
Субтитры: Английские

Режиссер: Шон Дуркин

rating

В ролях: Джуд Лоу, Кэрри Кун, Уна Рош, Чарли Шотуэлл, Таня Аллен, Таттиона Джонс, Маркус Корнуолл, Майкл Калкин, Адиль Ахтар, Аннабел Левентон

Описание: Роскошный особняк, успешный бизнес, красавица жена и послушные дети – все это есть у талантливого предпринимателя Рори. Но ему хочется большего. И вот в погоне за наживой он бросает все и отправляется в Англию покорять новые вершины. Но Старый свет не так прост. И Рори приходится изворачиваться, лгать и предавать, чтобы сохранить свой роскошный стиль жизни. На что он готов ради своей жажды власти и денег?

Качество: WEB-DL 1080p | AMAZON Version
Формат: MKV

Видео: MPEG-4 AVC, 1920x1040, 8717 Kbit/s, 23.976 fps
Аудио#1: 48 kHz, AC3, 5.1, 384 Kbps | iTunes | RUS |
Аудио#2: 48 kHz, E-AC3, 5.1, 640 Kbps | Оригинал | ENG |
скриншот  скриншот  скриншот  скриншот  скриншот  

General
Unique ID : 246938528006345588841079398347346198702 (0xB9C6A16BCADFEC8DEC6FB7DFF956C0AE)
Complete name : D:Video111The.Nest.2020.AMZN.WEB-DL.1080p.seleZen.mkv
Format : Matroska
Format version : Version 4
File size : 7.31 GiB
Duration : 1 h 47 min
Overall bit rate : 9 743 kb/s
Movie name : The Nest 2020 from seleZen
Encoded date : UTC 2020-11-18 07:26:13
Writing application : mkvmerge v40.0.0 ('Old Town Road + Pony') 64-bit
Writing library : libebml v1.3.9 + libmatroska v1.5.2

Video
ID : 1
Format : AVC
Format/Info : Advanced Video Codec
Format profile : High@L4
Format settings : CABAC / 4 Ref Frames
Format settings, CABAC : Yes
Format settings, Reference : 4 frames
Codec ID : V_MPEG4/ISO/AVC
Duration : 1 h 47 min
Bit rate mode : Constant
Bit rate : 8 717 kb/s
Nominal bit rate : 10 000 kb/s
Width : 1 920 pixels
Height : 1 040 pixels
Display aspect ratio : 1.85:1
Frame rate mode : Constant
Frame rate : 23.976 (24000/1001) FPS
Color space : YUV
Chroma subsampling : 4:2:0
Bit depth : 8 bits
Scan type : Progressive
Bits/(Pixel*Frame) : 0.182
Stream size : 6.54 GiB (89%)
Language : English
Default : Yes
Forced : No
Color range : Limited
Color primaries : BT.709
Transfer characteristics : BT.709
Matrix coefficients : BT.709

Audio #1
ID : 2
Format : AC-3
Format/Info : Audio Coding 3
Commercial name : Dolby Digital
Codec ID : A_AC3
Duration : 1 h 47 min
Bit rate mode : Constant
Bit rate : 384 kb/s
Channel(s) : 6 channels
Channel layout : L R C LFE Ls Rs
Sampling rate : 48.0 kHz
Frame rate : 31.250 FPS (1536 SPF)
Compression mode : Lossy
Stream size : 295 MiB (4%)
Title : iTunes
Language : Russian
Service kind : Complete Main
Default : Yes
Forced : Yes

Audio #2
ID : 3
Format : E-AC-3
Format/Info : Enhanced AC-3
Commercial name : Dolby Digital Plus
Codec ID : A_EAC3
Duration : 1 h 47 min
Bit rate mode : Constant
Bit rate : 640 kb/s
Channel(s) : 6 channels
Channel layout : L R C LFE Ls Rs
Sampling rate : 48.0 kHz
Frame rate : 31.250 FPS (1536 SPF)
Compression mode : Lossy
Stream size : 492 MiB (7%)
Title : Original
Language : English
Service kind : Complete Main
Default : No
Forced : No

Text #1
ID : 4
Format : UTF-8
Codec ID : S_TEXT/UTF8
Codec ID/Info : UTF-8 Plain Text
Duration : 1 h 39 min
Bit rate : 45 b/s
Count of elements : 1254
Stream size : 33.1 KiB (0%)
Title : Full
Language : English
Default : No
Forced : No

Text #2
ID : 5
Format : UTF-8
Codec ID : S_TEXT/UTF8
Codec ID/Info : UTF-8 Plain Text
Duration : 1 h 42 min
Bit rate : 46 b/s
Count of elements : 1359
Stream size : 34.9 KiB (0%)
Title : SDH
Language : English
Default : No
Forced : No

pb.wtf



Скачать Гнездо через торрент https://c.radikal.ru/c09/2011/54/55803b53cfac.jpg Скачать фильм Гнездо через торрент бесплантно в хорошем качестве Описание: Роскошный особняк, успешный бизнес, красавица жена и послушные дети – все это есть у талантливого предпринимателя Рори. Но ему ... 7.8 10 4
Торрент: Зарегистрирован [2020-11-18 08:15] · скачан: 47 раз
Статус: √ проверено
Размер: 7.31 GB
Как cкачать? Как скачать Гнездо через торрент | qTorrent

% Раздел Тема Автор DL S | L
Фильмы (WEB-DL 720p, 1080p) [ 4.03 GB ] Гнездо / The Nest [2020 WEB-DL 1080p] bober100 Скачать
12 | 0
Фильмы (WEB-DL 720p, 1080p) [ 3.34 GB ] Гнездо / The Nest [2020 WEB-DL 720p] bober100 Скачать
2 | 0
Фильмы 2019-2020 [DVDrip, WEB-DLRip, HDrip] (DUB, MVO) [ 1.46 GB ] Гнездо / The Nest [2020 WEB-DLRip] bober100 Скачать
8 | 0
Фильмы [HD 720p, 1080p] (Хороший звук DUB, MVO) [ 16.28 GB ] Пролетая над гнездом кукушки / One Flew Over the Cuckoo's Nest [1975 BDRip 1080p] + 2x[MVO] + 9x[AVO] + 2x[VO] killermax2013 Скачать
2 | 1
Фильмы с авторской озвучкой [ 3.21 GB ] Пролетая над гнездом кукушки / One Flew Over the Cuckoo's Nest [1975 BDRip] 4x[AVO] killermax2013 Скачать
1 | 0
Фильмы до 2000 г. [ 1.48 GB ] Пролетая над гнездом кукушки / One Flew Over the Cuckoo's Nest [1975 BDRip ] Se7ven95 Скачать
1 | 0
Фильмы с авторской озвучкой [ 1.46 GB ] Раскаяние / Apparition [2015 HDRip] АVO - [Андрей Дольский] diletant Скачать
1 | 0

28-11-2019 20:33  

Отключить всю рекламу на сайте

18-11-2020 13:48 Гнездо Скачать торрент  

Цитата:

Режиссер: Шон Дуркин



как то сразу и не заметил а то может и не смотрел бы, фильм хрень 0 из 10pb.wtf



    Дорогой пользователь! Огромная просьба, поблагодарите релизера, оцените раздачу и оставьте свои комментарий, если Вы скачали Гнездо через торрент бесплатно! Внесите свою лепту в развитие PiratBit!
    Комментировать посты могут только пользователи прошедшие не сложную регистрацию
    Показать сообщения:    

    Гнездо через торрент
    Скачать бесплатно Гнездо
    Гнездо скачать торрент
    Гнездо смотреть онлайн
    Cкачать фильм Гнездо бесплатно
    Гнездо скачать торрент в хорошем качестве
    Гнездо смотреть онлайн бесплатно в хорошем качестве


    Вы не можете начинать темы
    Вы не можете отвечать на сообщения
    Вы не можете редактировать свои сообщения
    Вы не можете удалять свои сообщения
    Вы не можете голосовать в опросах
    Вы не можете прикреплять файлы к сообщениям
    Вы можете скачивать файлы