2 сезон

iTunes

MVO

1

2 сезон

iTunes

iTunes

1 сезон

RePack

30

Новинка

ВАЖНО

ИГРА 18+

pack

RePack

MK11
pack

Легкие деньги

RePack

jed

RePack

fifa19

RePack

RDR2

RePack

NEED FOR SPEED™ PAYBACK

4 сезон

9 сезон

Бесстыжие 9 сезон

Все сериалы

все сериалы на PB.wtf

RePack

FAR CRY 5

Anonymous, добрый день, мы не успеваем собрать деньги на оплату серверов за декабрь и январь, помогите нам пожалуйста в это трудное время. В качестве благодарности мы отключим Вам всю рекламу на сайте (укажите свой ник в строку Ваше имя)!

×
  
Magnet ссылка

Тёмные начала / His Dark Materials / Сезон: 2 / Серии: 1-7 из 7 (Джейми Чайлдс) [2020, фэнтези, драма, приключения, семейный, WEBRip 2160p] DUB [Novamedia / Amedia] pb.wtf

Тёмные начала через торрент pb.wtf

Раздают: 1 [ 0 KB/s ]
Размер: 42.96 GB | Добавлен: 30 д. назад | Торрент скачан:14 раз
Скачать  

18-11-2020 08:28 Тёмные начала Скачать торрент  

Тёмные начала / His Dark Materials

Год выпуска: 2020
Страна: Великобритания, США
Жанр: фэнтези, драма, приключения, семейный
Продолжительность: ~00:55:00
Перевод: Профессиональный (дублированный) [Novamedia] по заказу Аmedia
Субтитры: Нет

Режиссёр: Джейми Чайлдс, Отто Батхёрст, Том Хупер

В ролях: Дафни Кин, Джеймс МакЭвой, Рут Уилсон, Лин-Мануэль Миранда, Кларк Питерс, Иэн Гелдер, Уилл Кин, Эрион Бакаре, Энн-Мэри Дафф, Кит Коннор

Описание: Лира Белаква живёт в мире, где существуют ведьмы и бронированные медведи, а у людей есть деймоны — существа, составляющие неотъемлемую часть их личностей. Опекун девочки, исследователь лорд Азриэл, находит способ передвигаться между параллельными землями, благодаря чему Лира знакомится с мальчиком Уиллом, который живёт в мире, лишённом магии.



Качество: WEBRip HDR 2160p
Формат: MKV
Видео кодек: x265@10bit
Аудио кодек: AC3
Видео: 3840x2160, 25.000 fps, HDR, HEVC, ~18.3 Mb/s, 10bit
Аудио: Rus, 48 kHz/16-bit, AC3 2.0, ~192 kbps | Дубляж
Навигация по главам: Отсутствует

***Примечание: Без рекламы

- H.265/HEVC (High Efficiency Video Coding) - это новый стандарт кодирования видео.

- Стандарт H.265/HEVC является логическим продолжением стандарта H.264/AVC (Advanced Video Coding), и характеризуется более эффективными алгоритмами сжатия, а также поддержкой высокого разрешения вплоть до 8K UHD (8192x4320). Первая версия стандарта H.265 была опубликована в начале 2013 года.

- Рипы в фомате HEVC поддерживается не всеми аппаратными проигрывателями.

- Для корректного воспроизведения может потребоваться обновление ПО.

- Владельцам несовместимого железа просьба не беспокоить, есть альтернативные релизы.
General

Unique ID : 330909728050463909028262035404173172181 (0xF8F2E539DC7A8A6809A280011C615DD5)

Complete name : E:NFHis.Dark.Materials.S02.WEB-DL.2160p.AmediaHis Dark Materials S02E01 [2160p HDR].mkv

Format : Matroska

Format version : Version 4

File size : 5.99 GiB

Duration : 46 min 25 s

Overall bit rate : 18.5 Mb/s

Movie name : His Dark Materials S02E01 The City of Magpies

Encoded date : UTC 2020-11-17 17:01:19

Writing application : mkvmerge v51.0.0 ('I Wish') 64-bit

Writing library : libebml v1.4.0 + libmatroska v1.6.2

Cover : Yes

Attachments : cover.jpg

Video

ID : 1

Format : HEVC

Format/Info : High Efficiency Video Coding

Format profile : Main 10@L5.1@Main

Codec ID : V_MPEGH/ISO/HEVC

Duration : 46 min 21 s

Bit rate : 18.3 Mb/s

Width : 3 840 pixels

Height : 2 160 pixels

Display aspect ratio : 16:9

Frame rate mode : Constant

Frame rate : 25.000 FPS

Standard : Component

Color space : YUV

Chroma subsampling : 4:2:0

Bit depth : 10 bits

Bits/(Pixel*Frame) : 0.088

Stream size : 5.92 GiB (99%)

Default : Yes

Forced : No

Color range : Limited

Color primaries : BT.2020

Transfer characteristics : HLG / BT.2020 (10-bit)

Matrix coefficients : BT.2020 non-constant

Audio

ID : 2

Format : AC-3

Format/Info : Audio Coding 3

Commercial name : Dolby Digital

Codec ID : A_AC3

Duration : 46 min 25 s

Bit rate mode : Constant

Bit rate : 192 kb/s

Channel(s) : 2 channels

Channel layout : L R

Sampling rate : 48.0 kHz

Frame rate : 31.250 FPS (1536 SPF)

Compression mode : Lossy

Delay relative to video : 24 ms

Stream size : 63.8 MiB (1%)

Title : Дубляж, Novamedia по заказу Аmedia

Language : Russian

Service kind : Complete Main

Default : Yes

Forced : No
скриншот  скриншот  скриншот  скриншот  скриншот  
Внимание! Раздача ведётся путём добавления новых серий; при каждом добавлении создаётся новый торрент.
Чтобы начать докачку новой серии, пользователям необходимо сделать следующее:
1. Остановить скачивание;
2. Удалить старый торрент у себя из клиента (старые серии удалять не надо);
3. Скачать новый торрент и запустить его у себя в клиенте вместо старого, при этом указать клиенту путь в старую папку куда и должно происходить скачивание новых серий. Ваш клиент при этом должен произвести хеширование (проверку) старой папки и будет докачивать только те серии, которых у вас ещё нет. Старые серии при этом не удаляются, а продолжают раздаваться! Eсли вы уже удалили старые серии, то предотвратить повторную закачку старых серий можно, отжав галочку в соответствующих местах при запуске нового торрента.
pb.wtf



Скачать Тёмные начала через торрент https://i3.imageban.ru/out/2020/11/10/5513be611a5a5005c45bdb15dab53990.png Скачать фильм Тёмные начала через торрент бесплантно в хорошем качестве Описание: Лира Белаква живёт в мире, где существуют ведьмы и бронированные медведи, а у людей есть деймоны — существа, составляющие ... 10 10 3
Торрент: Зарегистрирован [2020-12-22 19:20] · скачан: 14 раз
Статус: √ проверено
Размер: 42.96 GB
Как cкачать? Как скачать Тёмные начала через торрент | UTorrent

% Раздел Тема Автор DL S | L
Зарубежные сериалы [ 49.27 GB ] Тёмные начала / His Dark Materials / Сезон: 2 / Серии: 1-7 из 7 [2020 UHD WEB-DL 2160p] DUB [Novamedia / Amedia] +4xMVO [LostFilm AlexFilm Jaskier NewStudio] bober100 Скачать
3 | 0
Зарубежные сериалы [ 4.63 GB ] Тёмные начала / His Dark Materials / Сезон: 2 / Серии: 1-7 из 7 [2020 WEB-DLRip] MVO [LostFilm] bober100 Скачать
15 | 1
Зарубежные сериалы [ 23.69 GB ] Тёмные начала / His Dark Materials / Сезон: 2 / Серии: 1-7 из 7 [2020 WEB-DL 1080p] DUB [Novamedia / Amedia] bober100 Скачать
4 | 6
Зарубежные сериалы [ 6.67 GB ] Тёмные начала / His Dark Materials / Сезон: 2 / Серии: 1-7 из 7 [2020 WEB-DLRip] DUB [Novamedia / Amedia] bober100 Скачать
5 | 0
Зарубежные сериалы [ 4.18 GB ] Тёмные начала / His Dark Materials / Сезон: 2 / Серии: 1-7 из 7 [2020 WEB-DLRip] MVO [TVShows] bober100 Скачать
2 | 1
Зарубежные сериалы [ 28.1 GB ] Тёмные начала / His Dark Materials / Сезон: 2 / Серии: 1-7 из 7 [2020 WEB-DL 1080p] 4xMVO [NewStudio AlexFilm HDRezka Studio Jaskier] bober100 Скачать
2 | 0
Зарубежные сериалы [ 7.61 GB ] Темные начала / His Dark Materials / Сезон: 2 / Серии 1-7 из 7 [2020 WEB-DLRip 1080p] killermax2013 Скачать
3 | 0

28-11-2019 20:33  

Отключить всю рекламу на сайте


    Дорогой пользователь! Огромная просьба, поблагодарите релизера, оцените раздачу и оставьте свои комментарий, если Вы скачали Тёмные начала через торрент бесплатно! Внесите свою лепту в развитие PiratBit!
    Комментировать посты могут только пользователи прошедшие не сложную регистрацию
    Показать сообщения:    

    Тёмные начала через торрент
    Скачать бесплатно Тёмные начала
    Тёмные начала скачать торрент
    Тёмные начала смотреть онлайн
    Cкачать фильм Тёмные начала бесплатно
    Тёмные начала скачать торрент в хорошем качестве
    Тёмные начала смотреть онлайн бесплатно в хорошем качестве


    Вы не можете начинать темы
    Вы не можете отвечать на сообщения
    Вы не можете редактировать свои сообщения
    Вы не можете удалять свои сообщения
    Вы не можете голосовать в опросах
    Вы не можете прикреплять файлы к сообщениям
    Вы можете скачивать файлы