Всегда рабочее зеркало без VPN и Proxy просто перед .vidak.icu напиши любое слово или цифру, Пример http://a0jo.vidak.icu

MVO

MVO

1 сезон

1

1 сезон

iTunes

1 сезон

13

1 сезон

Deluxe

pack

Рекомендуем

Repack

30

ВАЖНО

RePack

MK11

RePack

jed

RePack

fifa19

RePack

RDR2

RePack

NEED FOR SPEED™ PAYBACK

Кинопоиск HD

6 сезон

 Острые козырьки 6 сезон

Все сериалы

все сериалы на PB.wtf

RePack

FAR CRY 5
  
Magnet ссылка

Обитель зла / Resident Evil (Пол У. С. Андерсон) [2002, Ужасы, фантастика, боевик, UHD BDRemux 2160p] DUB+MVO (rus, ukr) +2xDVO+4xAVO pb.wtf

Обитель зла через торрент pb.wtf

Раздают: 1 [ 20 KB/s ]
Размер: 58.05 GB | Добавлен: 1 год 8 мес. назад | Торрент скачан:68 раз
Смотреть онлайн Обитель зла | Скачать    Ребята, помогите собрать деньги на оплату серверов!!!

18-11-2020 12:00 Обитель зла Скачать торрент  

Обитель зла | Resident Evil
Год выпуска: 2002
Страна: Великобритания, Германия, Франция, США
Жанр: Ужасы, фантастика, боевик
Продолжительность: 01:40:31
Перевод(ы):
#1: Дублированный | Парадиз-ВС
#2: Профессиональный двухголосый | Петр Гланц и Инна Королёва #1
#3: Профессиональный двухголосый | Петр Гланц и Инна Королёва #2
#4: Профессиональный многоголосый | THT
#5: Авторский | Дмитрий "Гоблин" Пучков
#6: Авторский | Леонид Володарский
#7: Авторский | Валерий Рукин
#8: Авторский | Евгений Рудой
Субтитры: Русские (full), английские

Режиссер: Пол У. С. Андерсон

rating

В ролях: Милла Йовович, Мишель Родригес, Эрик Мэбиас, Джеймс Пьюрфой, Мартин Крюз, Колин Сэлмон, Райан МакКласки, Оскар Пирс, Индра Ове, Анна Болт, Джозеф Мэй, Роберт Тэннион, Хайке Макатч, Джеймс Батлер, Стивен Биллингтон, Фиона Глэскотт, Паскуале Алеарди, Лиз Мэй Брайс, Торстен Йерабек, Марк Логан-Блэк, Михаэла Дикер

Описание: В гигантской подземной лаборатории на волю вырывается опаснейший вирус, мгновенно превращая своих жертв в прожорливых зомби. Достаточно одного их укуса или царапины страшных когтей, чтобы человек стал обезумевшим пожирателем живой плоти. Военные посылают в секретный комплекс, кишащий ужасными мутировавшими животными и голодными монстрами, группу спецназа, к которой присоединяются очаровательная Элис и отважный полицейский Мэтт. У них есть только три часа, чтобы уничтожить вирус до того, как он распространится по всей Земле…

Качество: UHD BDRemux 2160p
Формат: MKV

Видео: 3840x2160 at 23.976 fps, MPEG-H HEVC HDR Video, 50400 kbps avg
Аудио #01: 48 kHz, DTS-HD MA, 5.1, 4503 Kbps | Дублированный | Парадиз-ВС | RUS |
Аудио #02: 48 kHz, AC3, 5.1, 640 Kbps | Дублированный | Парадиз-ВС | RUS |
Аудио #03: 48 kHz, DTS-HD MA, 5.1, 4475 Kbps | Профессиональный двухголосый | Петр Гланц и Инна Королёва #1 | RUS |
Аудио #04: 48 kHz, DTS-HD MA, 5.1, 2301 Kbps | Профессиональный двухголосый | Петр Гланц и Инна Королёва #2 | RUS |
Аудио #05: 48 kHz, AC3, 2.0, 192 Kbps | Профессиональный многоголосый | THT | RUS |
Аудио #06: 48 kHz, DTS-HD MA, 5.1, 4472 Kbps | Авторский | Дмитрий "Гоблин" Пучков | RUS |
Аудио #07: 48 kHz, DTS-HD MA, 5.1, 4476 Kbps | Авторский | Леонид Володарский | RUS |
Аудио #08: 48 kHz, DTS-HD MA, 5.1, 4470 Kbps | Авторский | Валерий Рукин | RUS |
Аудио #09: 48 kHz, DTS-HD MA, 5.1, 2301 Kbps | Авторский | Евгений Рудой | RUS |
Аудио #10: 48 kHz, AC3, 2.0, 192 Kbps | Профессиональный многоголосый | ICTV | UKR |
Аудио #11: 48 kHz, TrueHD, 7.1, 3567 Kbps | Оригинал | ENG |
Аудио #12: 48 kHz, AC3, 5.1, 640 Kbps | Оригинал | ENG |
скриншот  скриншот  скриншот  скриншот  скриншот  

General
Unique ID : 196974562878004655891285280621898352526 (0x942FEBBFA3A8C1D25EA87EE9B9F9C78E)
Complete name : D:Video111Resident.Evil.2002.BDREMUX.2160p.HDR.seleZen.mkv
Format : Matroska
Format version : Version 4
File size : 58.1 GiB
Duration : 1 h 40 min
Overall bit rate mode : Variable
Overall bit rate : 82.7 Mb/s
Movie name : Resident Evil 2002 from seleZen
Encoded date : UTC 2020-11-11 19:32:19
Writing application : mkvmerge v40.0.0 ('Old Town Road + Pony') 64-bit
Writing library : libebml v1.3.9 + libmatroska v1.5.2

Video
ID : 1
Format : HEVC
Format/Info : High Efficiency Video Coding
Format profile : Main [email protected]@High
HDR format : SMPTE ST 2086, HDR10 compatible
Codec ID : V_MPEGH/ISO/HEVC
Duration : 1 h 40 min
Bit rate : 50.4 Mb/s
Width : 3 840 pixels
Height : 2 160 pixels
Display aspect ratio : 16:9
Frame rate mode : Constant
Frame rate : 23.976 (24000/1001) FPS
Color space : YUV
Chroma subsampling : 4:2:0 (Type 2)
Bit depth : 10 bits
Bits/(Pixel*Frame) : 0.253
Stream size : 35.4 GiB (61%)
Language : English
Default : Yes
Forced : No
Color range : Limited
Color primaries : BT.2020
Transfer characteristics : PQ
Matrix coefficients : BT.2020 non-constant
Mastering display color pri : Display P3
Mastering display luminance : min: 0.0050 cd/m2, max: 4000 cd/m2
Maximum Content Light Level : 4065 cd/m2
Maximum Frame-Average Light : 2494 cd/m2

Audio #1
ID : 2
Format : DTS XLL
Format/Info : Digital Theater Systems
Commercial name : DTS-HD Master Audio
Codec ID : A_DTS
Duration : 1 h 40 min
Bit rate mode : Variable
Bit rate : 4 503 kb/s
Channel(s) : 6 channels
Channel layout : C L R Ls Rs LFE
Sampling rate : 48.0 kHz
Frame rate : 93.750 FPS (512 SPF)
Bit depth : 24 bits
Compression mode : Lossless
Stream size : 3.16 GiB (5%)
Title : Dub [Парадиз-ВС]
Language : Russian
Default : Yes
Forced : Yes

Audio #2
ID : 3
Format : AC-3
Format/Info : Audio Coding 3
Commercial name : Dolby Digital
Codec ID : A_AC3
Duration : 1 h 40 min
Bit rate mode : Constant
Bit rate : 640 kb/s
Channel(s) : 6 channels
Channel layout : L R C LFE Ls Rs
Sampling rate : 48.0 kHz
Frame rate : 31.250 FPS (1536 SPF)
Compression mode : Lossy
Stream size : 460 MiB (1%)
Title : Dub [Парадиз-ВС]
Language : Russian
Service kind : Complete Main
Default : No
Forced : No

Audio #3
ID : 4
Format : DTS XLL
Format/Info : Digital Theater Systems
Commercial name : DTS-HD Master Audio
Codec ID : A_DTS
Duration : 1 h 40 min
Bit rate mode : Variable
Bit rate : 4 475 kb/s
Channel(s) : 6 channels
Channel layout : C L R Ls Rs LFE
Sampling rate : 48.0 kHz
Frame rate : 93.750 FPS (512 SPF)
Bit depth : 24 bits
Compression mode : Lossless
Stream size : 3.14 GiB (5%)
Title : DVO [Петр Гланц и Инна Королёва #1]
Language : Russian
Default : No
Forced : No

Audio #4
ID : 5
Format : DTS XLL
Format/Info : Digital Theater Systems
Commercial name : DTS-HD Master Audio
Codec ID : A_DTS
Duration : 1 h 40 min
Bit rate mode : Variable
Bit rate : 2 301 kb/s
Channel(s) : 6 channels
Channel layout : C L R Ls Rs LFE
Sampling rate : 48.0 kHz
Frame rate : 93.750 FPS (512 SPF)
Bit depth : 16 bits
Compression mode : Lossless
Stream size : 1.62 GiB (3%)
Title : DVO [Петр Гланц и Инна Королёва #2]
Language : Russian
Default : No
Forced : No

Audio #5
ID : 6
Format : AC-3
Format/Info : Audio Coding 3
Commercial name : Dolby Digital
Codec ID : A_AC3
Duration : 1 h 40 min
Bit rate mode : Constant
Bit rate : 192 kb/s
Channel(s) : 2 channels
Channel layout : L R
Sampling rate : 48.0 kHz
Frame rate : 31.250 FPS (1536 SPF)
Compression mode : Lossy
Stream size : 138 MiB (0%)
Title : MVO [THT]
Language : Russian
Service kind : Complete Main
Default : No
Forced : No

Audio #6
ID : 7
Format : DTS XLL
Format/Info : Digital Theater Systems
Commercial name : DTS-HD Master Audio
Codec ID : A_DTS
Duration : 1 h 40 min
Bit rate mode : Variable
Bit rate : 4 472 kb/s
Channel(s) : 6 channels
Channel layout : C L R Ls Rs LFE
Sampling rate : 48.0 kHz
Frame rate : 93.750 FPS (512 SPF)
Bit depth : 24 bits
Compression mode : Lossless
Stream size : 3.14 GiB (5%)
Title : AVO [Дмитрий "Гоблин" Пучков]
Language : Russian
Default : No
Forced : No

Audio #7
ID : 8
Format : DTS XLL
Format/Info : Digital Theater Systems
Commercial name : DTS-HD Master Audio
Codec ID : A_DTS
Duration : 1 h 40 min
Bit rate mode : Variable
Bit rate : 4 476 kb/s
Channel(s) : 6 channels
Channel layout : C L R Ls Rs LFE
Sampling rate : 48.0 kHz
Frame rate : 93.750 FPS (512 SPF)
Bit depth : 24 bits
Compression mode : Lossless
Stream size : 3.14 GiB (5%)
Title : AVO [Леонид Володарский]
Language : Russian
Default : No
Forced : No

Audio #8
ID : 9
Format : DTS XLL
Format/Info : Digital Theater Systems
Commercial name : DTS-HD Master Audio
Codec ID : A_DTS
Duration : 1 h 40 min
Bit rate mode : Variable
Bit rate : 4 470 kb/s
Channel(s) : 6 channels
Channel layout : C L R Ls Rs LFE
Sampling rate : 48.0 kHz
Frame rate : 93.750 FPS (512 SPF)
Bit depth : 24 bits
Compression mode : Lossless
Stream size : 3.14 GiB (5%)
Title : AVO [Валерий Рукин]
Language : Russian
Default : No
Forced : No

Audio #9
ID : 10
Format : DTS XLL
Format/Info : Digital Theater Systems
Commercial name : DTS-HD Master Audio
Codec ID : A_DTS
Duration : 1 h 40 min
Bit rate mode : Variable
Bit rate : 2 301 kb/s
Channel(s) : 6 channels
Channel layout : C L R Ls Rs LFE
Sampling rate : 48.0 kHz
Frame rate : 93.750 FPS (512 SPF)
Bit depth : 16 bits
Compression mode : Lossless
Stream size : 1.62 GiB (3%)
Title : AVO [Евгений Рудой]
Language : Russian
Default : No
Forced : No

Audio #10
ID : 11
Format : AC-3
Format/Info : Audio Coding 3
Commercial name : Dolby Digital
Codec ID : A_AC3
Duration : 1 h 40 min
Bit rate mode : Constant
Bit rate : 192 kb/s
Channel(s) : 2 channels
Channel layout : L R
Sampling rate : 48.0 kHz
Frame rate : 31.250 FPS (1536 SPF)
Compression mode : Lossy
Stream size : 138 MiB (0%)
Title : MVO [ICTV]
Language : Ukrainian
Service kind : Complete Main
Default : No
Forced : No

Audio #11
ID : 12
Format : MLP FBA 16-ch
Format/Info : Meridian Lossless Packing FBA with 16-channel presentation
Commercial name : Dolby TrueHD with Dolby Atmos
Codec ID : A_TRUEHD
Duration : 1 h 40 min
Bit rate mode : Variable
Bit rate : 3 567 kb/s
Maximum bit rate : 5 616 kb/s
Channel(s) : 8 channels
Channel layout : L R C LFE Ls Rs Lb Rb
Sampling rate : 48.0 kHz
Frame rate : 1 200.000 FPS (40 SPF)
Compression mode : Lossless
Stream size : 2.50 GiB (4%)
Language : English
Default : No
Forced : No
Number of dynamic objects : 11
Bed channel count : 1 channel
Bed channel configuration : LFE

Audio #12
ID : 13
Format : AC-3
Format/Info : Audio Coding 3
Commercial name : Dolby Digital
Codec ID : A_AC3
Duration : 1 h 40 min
Bit rate mode : Constant
Bit rate : 640 kb/s
Channel(s) : 6 channels
Channel layout : L R C LFE Ls Rs
Sampling rate : 48.0 kHz
Frame rate : 31.250 FPS (1536 SPF)
Compression mode : Lossy
Stream size : 460 MiB (1%)
Title : Original
Language : English
Service kind : Complete Main
Default : No
Forced : No

Text #1
ID : 14
Format : UTF-8
Codec ID : S_TEXT/UTF8
Codec ID/Info : UTF-8 Plain Text
Duration : 1 h 32 min
Bit rate : 52 b/s
Count of elements : 695
Stream size : 36.1 KiB (0%)
Title : Full
Language : Russian
Default : No
Forced : No

Text #2
ID : 15
Format : UTF-8
Codec ID : S_TEXT/UTF8
Codec ID/Info : UTF-8 Plain Text
Duration : 1 h 38 min
Bit rate : 42 b/s
Count of elements : 979
Stream size : 30.4 KiB (0%)
Title : SDH
Language : English
Default : No
Forced : No

Menu
00:00:00.000 : en:Start
00:01:15.242 : en:Deadly Viral Outbreak
00:08:22.585 : en:Alice
00:11:00.409 : en:The Mansion
00:16:51.843 : en:The Train
00:19:09.898 : en:Underground Station
00:20:33.189 : en:The Hive
00:23:49.010 : en:Route to the Red Queen
00:27:14.924 : en:Dining Hall B
00:29:22.468 : en:Red Queen Chamber
00:32:01.001 : en:Defense Mechanism
00:34:40.494 : en:"You Have to Get Out."
00:37:51.226 : en:A Crazed Survivor
00:41:14.554 : en:The Undead
00:47:11.828 : en:Mutant Dogs
00:52:16.591 : en:Lisa
00:57:20.102 : en:Red Queen Q&A
01:00:47.977 : en:Utility Tunnel Attack
01:04:11.680 : en:Pipe Escape
01:08:35.694 : en:"There's a Cure!"
01:10:35.981 : en:Lisa's Contact
01:12:04.194 : en:The Saboteur
01:16:00.346 : en:A Bad, Bad Girl
01:18:33.666 : en:"You Have to Kill Me."
01:24:22.348 : en:Licker on Board
01:27:56.562 : en:"I've Failed."
01:30:16.160 : en:Under Observation
01:32:56.987 : en:The Dead Walk!
01:34:07.975 : en:End Credits

pb.wtf



Скачать Обитель зла через торрент https://i114.fastpic.ru/big/2020/1118/9a/626aba2b49ffb9e3067c4f367c597f9a.jpg Скачать, смотреть онлайн Обитель зла бесплантно в хорошем качестве Описание: В гигантской подземной лаборатории на волю вырывается опаснейший вирус, мгновенно превращая своих жертв в прожорливых зомби. ... 10 10 6
Info! Золотая раздача, скачанное не засчитывается.
Торрент: Зарегистрирован [2020-11-18 12:00] · скачан: 68 раз
Статус: √ проверено
Размер: 58.05 GB
Как cкачать? Как скачать Обитель зла через торрент | UTorrent

28-11-2019 20:33  

Отключить вcю реклaмy на сайте

    Дорогой пользователь! Огромная просьба, поблагодарите релизера, оцените раздачу и оставьте свои комментарий, если Вы скачали Обитель зла через торрент бесплатно!
    Комментировать посты могут только пользователи прошедшие не сложную регистрацию
    Показать сообщения:    

    Обитель зла через торрент
    Скачать бесплатно Обитель зла
    Обитель зла скачать торрент
    Обитель зла смотреть онлайн
    Cкачать фильм Обитель зла бесплатно
    Обитель зла скачать торрент в хорошем качестве
    Обитель зла смотреть онлайн бесплатно в хорошем качестве


    Вы не можете начинать темы
    Вы не можете отвечать на сообщения
    Вы не можете редактировать свои сообщения
    Вы не можете удалять свои сообщения
    Вы не можете голосовать в опросах
    Вы не можете прикреплять файлы к сообщениям
    Вы можете скачивать файлы