Всегда рабочее зеркало без VPN и Proxy просто перед .vidak.icu напиши любое слово или цифру, Пример http://3onv.vidak.icu

MVO

MVO

1 сезон

1

1 сезон

iTunes

1 сезон

13

1 сезон

Deluxe

pack

Рекомендуем

Repack

30

ВАЖНО

RePack

MK11

RePack

jed

RePack

fifa19

RePack

RDR2

RePack

NEED FOR SPEED™ PAYBACK

Кинопоиск HD

6 сезон

 Острые козырьки 6 сезон

Все сериалы

все сериалы на PB.wtf

RePack

FAR CRY 5
  
Magnet ссылка

Поезд в Пусан 2: Полуостров / Bando / Train to Busan 2 (Сан Хо Ён) [2020, Ужасы, триллер, боевик, UHD BDRemux 2160p] DUB [iTunes] pb.wtf

Поезд в Пусан 2: Полуостров через торрент pb.wtf

Размер: 50.86 GB | Добавлен: 1 год 8 мес. назад | Торрент скачан:66 раз
Смотреть онлайн Поезд в Пусан 2: Полуостров | Скачать    Ребята, помогите собрать деньги на оплату серверов!!!

18-11-2020 16:07 Поезд в Пусан 2: Полуостров Скачать торрент  

Поезд в Пусан 2: Полуостров | Bando | Train to Busan 2
Год выпуска: 2020
Страна: Южная Корея
Студия: Movic Comics, Next Entertainment World, RedPeter Film
Жанр: Ужасы, триллер, боевик
Продолжительность: 01:55:54
Перевод: Дублированный | iTunes
Субтитры: Русские (Full), английские

Режиссер: Сан Хо Ён

rating

В ролях: Дон Вон Кан, Чон Хён Ли, Рэ Ли, Хэ Хё Квон, Мин Чжэ Ким (I), Гё Хван Ку, До Юн Ким, Ё Вон Ли, Гю Бэк Ким, У Чжин Мун, Со Ён Чан, Си Вон Чха, Тхэ Джун Ким, Ён Гён Юн, Мин Сон Ким, Се Джун Пак, Хи Чхоль Син, Дэниэл Джои Олбрайт

Описание: Через четыре года после вспышки страшного вируса, распространение которого Южная Корея сдержать не смогла, то, что осталось от страны, находится в блокаде, а полчища зомби разгуливают по всему полуострову. Бывший военный в составе спецотряда отправляется в закрытую зону, чтобы отыскать припрятанные деньги, и теперь ему предстоит пробираться по жуткому миру, где помимо означенной угрозы опасность представляют и люди, устраивающие жестокие игры на выживание.

Качество: UHD BDRemux 2160p
Формат: MKV

Видео: 3840x2160 at 23.976 fps, MPEG-H HEVC HDR Video, 54900 kbps avg
Аудио#1: 48 kHz, AC3, 5.1, 384 Kbps | iTunes | RUS |
Аудио #02: 48 kHz, TrueHD, 7.1, 4449 Kbps | Оригинал | KOR |
Аудио #03: 48 kHz, AC3, 5.1, 640 Kbps | Оригинал | KOR |
Аудио #04: 48 kHz, DTS-HD MA, 5.1, 2408 Kbps | Оригинал | ENG |
скриншот  скриншот  скриншот  скриншот  скриншот  

General
Unique ID : 198692319340417137874050339258746885341 (0x957ABFAE5354092B9A724BCCC3E554DD)
Complete name : D:Video111Train.to.Busan.2.2020.BDREMUX.2160p.HDR.seleZen.mkv
Format : Matroska
Format version : Version 4
File size : 50.9 GiB
Duration : 1 h 55 min
Overall bit rate mode : Variable
Overall bit rate : 62.8 Mb/s
Movie name : Train to Busan 2 2020 from seleZen
Encoded date : UTC 2020-11-18 15:41:49
Writing application : mkvmerge v40.0.0 ('Old Town Road + Pony') 64-bit
Writing library : libebml v1.3.9 + libmatroska v1.5.2

Video
ID : 1
Format : HEVC
Format/Info : High Efficiency Video Coding
Format profile : Main [email protected]@High
HDR format : SMPTE ST 2086, HDR10 compatible
Codec ID : V_MPEGH/ISO/HEVC
Duration : 1 h 55 min
Bit rate : 54.9 Mb/s
Width : 3 840 pixels
Height : 2 160 pixels
Display aspect ratio : 16:9
Frame rate mode : Constant
Frame rate : 24.000 FPS
Color space : YUV
Chroma subsampling : 4:2:0 (Type 2)
Bit depth : 10 bits
Bits/(Pixel*Frame) : 0.276
Stream size : 44.4 GiB (87%)
Language : English
Default : Yes
Forced : No
Color range : Limited
Color primaries : BT.2020
Transfer characteristics : PQ
Matrix coefficients : BT.2020 non-constant
Mastering display color pri : BT.2020
Mastering display luminance : min: 0.0001 cd/m2, max: 1000 cd/m2
Maximum Content Light Level : 650 cd/m2
Maximum Frame-Average Light : 621 cd/m2

Audio #1
ID : 2
Format : AC-3
Format/Info : Audio Coding 3
Commercial name : Dolby Digital
Codec ID : A_AC3
Duration : 1 h 55 min
Bit rate mode : Constant
Bit rate : 384 kb/s
Channel(s) : 6 channels
Channel layout : L R C LFE Ls Rs
Sampling rate : 48.0 kHz
Frame rate : 31.250 FPS (1536 SPF)
Compression mode : Lossy
Stream size : 318 MiB (1%)
Title : iTunes
Language : Russian
Service kind : Complete Main
Default : Yes
Forced : Yes

Audio #2
ID : 3
Format : MLP FBA 16-ch
Format/Info : Meridian Lossless Packing FBA with 16-channel presentation
Commercial name : Dolby TrueHD with Dolby Atmos
Codec ID : A_TRUEHD
Duration : 1 h 55 min
Bit rate mode : Variable
Bit rate : 4 449 kb/s
Maximum bit rate : 7 755 kb/s
Channel(s) : 8 channels
Channel layout : L R C LFE Ls Rs Lb Rb
Sampling rate : 48.0 kHz
Frame rate : 1 200.000 FPS (40 SPF)
Compression mode : Lossless
Stream size : 3.60 GiB (7%)
Title : Original
Language : Korean
Default : No
Forced : No
Number of dynamic objects : 11
Bed channel count : 1 channel
Bed channel configuration : LFE

Audio #3
ID : 4
Format : AC-3
Format/Info : Audio Coding 3
Commercial name : Dolby Digital
Codec ID : A_AC3
Duration : 1 h 55 min
Bit rate mode : Constant
Bit rate : 640 kb/s
Channel(s) : 6 channels
Channel layout : L R C LFE Ls Rs
Sampling rate : 48.0 kHz
Frame rate : 31.250 FPS (1536 SPF)
Compression mode : Lossy
Stream size : 531 MiB (1%)
Language : Korean
Service kind : Complete Main
Default : No
Forced : No

Audio #4
ID : 5
Format : DTS XLL
Format/Info : Digital Theater Systems
Commercial name : DTS-HD Master Audio
Codec ID : A_DTS
Duration : 1 h 55 min
Bit rate mode : Variable
Bit rate : 2 408 kb/s
Channel(s) : 6 channels
Channel layout : C L R Ls Rs LFE
Sampling rate : 48.0 kHz
Frame rate : 93.750 FPS (512 SPF)
Bit depth : 16 bits
Compression mode : Lossless
Stream size : 1.95 GiB (4%)
Title : Original
Language : English
Default : No
Forced : No

Text #1
ID : 6
Format : UTF-8
Codec ID : S_TEXT/UTF8
Codec ID/Info : UTF-8 Plain Text
Duration : 1 h 50 min
Bit rate : 48 b/s
Count of elements : 943
Stream size : 39.3 KiB (0%)
Title : Full
Language : Russian
Default : No
Forced : No

Text #2
ID : 7
Format : UTF-8
Codec ID : S_TEXT/UTF8
Codec ID/Info : UTF-8 Plain Text
Duration : 1 h 49 min
Bit rate : 30 b/s
Count of elements : 1012
Stream size : 24.2 KiB (0%)
Title : Full
Language : English
Default : No
Forced : No

Menu
00:00:00.000 : en:Chapter 01
00:09:45.542 : en:Chapter 02
00:18:59.542 : en:Chapter 03
00:27:25.458 : en:Chapter 04
00:39:40.542 : en:Chapter 05
00:46:31.958 : en:Chapter 06
00:58:44.500 : en:Chapter 07
01:08:44.708 : en:Chapter 08
01:18:08.333 : en:Chapter 09
01:29:02.333 : en:Chapter 10
01:39:40.917 : en:Chapter 11
01:51:12.083 : en:Chapter 12

pb.wtf



Скачать Поезд в Пусан 2: Полуостров через торрент https://a.radikal.ru/a03/2011/f8/67cb33414a8d.jpg Скачать, смотреть онлайн Поезд в Пусан 2: Полуостров бесплантно в хорошем качестве Описание: Через четыре года после вспышки страшного вируса, распространение которого Южная Корея сдержать не смогла, то, что осталось от ... 10 10 5
Info! Золотая раздача, скачанное не засчитывается.
Торрент: Зарегистрирован [2020-11-18 16:07] · скачан: 66 раз
Статус: √ проверено
Размер: 50.86 GB
Как cкачать? Как скачать Поезд в Пусан 2: Полуостров через торрент | UTorrent

% Раздел Тема Автор DL S | L
Азиатские фильмы [ 2.13 GB ] Поезд в Пусан 2: Полуостров / Bando / Train to Busan 2 [2020 BDRip] - Twi7ter Скачать
11 | 0
Азиатские фильмы [ 1.41 GB ] Поезд в Пусан 2: Полуостров / Bando / Train to Busan 2 [2020 BDRip] - Twi7ter Скачать
10 | 0
Фильмы (Blu-ray, BD-Remux, HDDVD) [ 30.93 GB ] Поезд в Пусан 2: Полуостров / Bando / Train to Busan 2 [2020 BD Remux 1080p] bober100 Скачать
1 | 0
Азиатские фильмы [ 3.71 GB ] Поезд в Пусан 2: Полуостров / Bando / Train to Busan 2 [2020 BDRip 720p] - ExKinoRay Enigma2010 Скачать
1 | 0
Азиатские фильмы [ 7.69 GB ] Поезд в Пусан 2: Полуостров / Bando / Train to Busan 2 [2020 BDRip 1080p] bober100 Скачать
1 | 0
Азиатские фильмы [ 747 MB ] Поезд в Пусан 2: Полуостров / Bando / Train to Busan 2 [2020 WEB-DLRip] bober100 Скачать
1 | 0
Азиатские фильмы [ 1.46 GB ] Поезд в Пусан 2: Полуостров / Bando / Train to Busan 2 [2020 WEB-DLRip] bober100 Скачать
1 | 0

28-11-2019 20:33  

Отключить вcю реклaмy на сайте

    Дорогой пользователь! Огромная просьба, поблагодарите релизера, оцените раздачу и оставьте свои комментарий, если Вы скачали Поезд в Пусан 2: Полуостров через торрент бесплатно!
    Комментировать посты могут только пользователи прошедшие не сложную регистрацию
    Показать сообщения:    

    Поезд в Пусан 2: Полуостров через торрент
    Скачать бесплатно Поезд в Пусан 2: Полуостров
    Поезд в Пусан 2: Полуостров скачать торрент
    Поезд в Пусан 2: Полуостров смотреть онлайн
    Cкачать фильм Поезд в Пусан 2: Полуостров бесплатно
    Поезд в Пусан 2: Полуостров скачать торрент в хорошем качестве
    Поезд в Пусан 2: Полуостров смотреть онлайн бесплатно в хорошем качестве


    Вы не можете начинать темы
    Вы не можете отвечать на сообщения
    Вы не можете редактировать свои сообщения
    Вы не можете удалять свои сообщения
    Вы не можете голосовать в опросах
    Вы не можете прикреплять файлы к сообщениям
    Вы можете скачивать файлы