Всегда рабочее зеркало без VPN и Proxy просто перед .vidak.icu напиши любое слово или цифру, Пример http://tbot.vidak.icu

Лицензия

MVO

1 сезон

1

1 сезон

iTunes

1 сезон

13

1 сезон

Deluxe

pack

Рекомендуем

Repack

30

ВАЖНО

RePack

MK11

RePack

jed

RePack

fifa19

RePack

RDR2

RePack

NEED FOR SPEED™ PAYBACK

Кинопоиск HD

6 сезон

 Острые козырьки 6 сезон

Все сериалы

все сериалы на PB.wtf

RePack

FAR CRY 5
  
Magnet ссылка

Обитель зла 2: Апокалипсис / Resident Evil 2: Apocalypse (Александр Уитт) [2004, Ужасы, фантастика, боевик, триллер, UHD BDRemux 2160p] DUB [Лицензия] +MVO (rus, ukr) +DVO+AVO pb.wtf

Обитель зла 2: Апокалипсис через торрент pb.wtf

Раздают: 1 [ 0 KB/s ]
Размер: 44.26 GB | Добавлен: 1 год 8 мес. назад | Торрент скачан:54 раза
Смотреть онлайн Обитель зла 2: Апокалипсис | Скачать    Ребята, помогите собрать деньги на оплату серверов!!!

19-11-2020 13:32 Обитель зла 2: Апокалипсис Скачать торрент  

Обитель зла 2: Апокалипсис | Resident Evil 2: Apocalypse
Год выпуска: 2004
Страна: Германия, Франция, Великобритания, Канада, США
Студия: Constantin Film Ltd., Constantin Film Produktion GmbH
Жанр: Ужасы, фантастика, боевик, триллер
Продолжительность: 01:33:47
Перевод(ы):
#1: Дублированный | Лицензия
#2: Профессиональный многоголосый | Tycoon studio
#3: Профессиональный двухголосый | Петр Гланц и Инна Королёва
#4: Авторский | Юрий Живов
Субтитры: Русские (full), английские

Режиссер: Александр Уитт

rating

В ролях: Милла Йовович, Сиенна Гиллори, Одед Фер, Томас Кречманн, Софи Вавасо, Разаак Адоти, Джаред Харрис, Майк Эппс, Сандрин Холт, Мэттью Дж. Тейлор, Зак Уорд, Иэн Глен, Дэйв Николс

Описание: Действие картины разворачивается на улицах печально известного Ракун-сити, города, контролируемого могущественной корпорацией «Амбрелла». После химический катастрофы все жители стали медленно превращаться в зомби, а те немногочисленные граждане, чей разум ещё не был до конца изъеден ужасным вирусом, доживали свои последние дни в атмосфере страха и желания скорейшей смерти…

Качество: UHD BDRemux 2160p
Формат: MKV

Видео: 3840x2160 at 23.976 fps, MPEG-H HEVC HDR Video, 51300 kbps avg
Аудио #01: 48 kHz, DTS-HD MA, 5.1, 3903 Kbps | Дублированный | Парадиз-ВС | RUS |
Аудио #02: 48 kHz, AC3, 5.1, 640 Kbps | Дублированный | Парадиз-ВС | RUS |
Аудио #03: 48 kHz, DTS-HD MA, 5.1, 2432 Kbps | Профессиональный многоголосый | Tycoon studio | RUS |
Аудио #04: 48 kHz, DTS-HD MA, 5.1, 2433 Kbps | Профессиональный двухголосый | Петр Гланц и Инна Королёва | RUS |
Аудио #05: 48 kHz, DTS-HD MA, 5.1, 2435 Kbps | Авторский | Юрий Живов | RUS |
Аудио #06: 48 kHz, AC3, 2.0, 192 Kbps | Профессиональный многоголосый | ICTV | UKR |
Аудио #07: 48 kHz, TrueHD, 7.1, 3480 Kbps | Оригинал | ENG |
Аудио #08: 48 kHz, AC3, 5.1, 640 Kbps | Оригинал | ENG |
скриншот  скриншот  скриншот  скриншот  скриншот  

General
Unique ID : 140574959301478519697862377243487475240 (0x69C1C09A55E5EFF3F3DE4BD2E8179628)
Complete name : D:Video111Resident.Evil.Apocalypse.2004.BDREMUX.2160p.seleZen.mkv
Format : Matroska
Format version : Version 4
File size : 44.3 GiB
Duration : 1 h 33 min
Overall bit rate mode : Variable
Overall bit rate : 67.5 Mb/s
Movie name : Resident Evil Apocalypse 2004 4K UHD from seleZen
Encoded date : UTC 2020-11-13 00:10:27
Writing application : mkvmerge v40.0.0 ('Old Town Road + Pony') 64-bit
Writing library : libebml v1.3.9 + libmatroska v1.5.2

Video
ID : 1
Format : HEVC
Format/Info : High Efficiency Video Coding
Format profile : Main [email protected]@High
HDR format : SMPTE ST 2086, HDR10 compatible
Codec ID : V_MPEGH/ISO/HEVC
Duration : 1 h 33 min
Bit rate : 51.3 Mb/s
Width : 3 840 pixels
Height : 2 160 pixels
Display aspect ratio : 16:9
Frame rate mode : Constant
Frame rate : 23.976 (24000/1001) FPS
Color space : YUV
Chroma subsampling : 4:2:0 (Type 2)
Bit depth : 10 bits
Bits/(Pixel*Frame) : 0.258
Stream size : 33.6 GiB (76%)
Language : English
Default : Yes
Forced : No
Color range : Limited
Color primaries : BT.2020
Transfer characteristics : PQ
Matrix coefficients : BT.2020 non-constant
Mastering display color pri : Display P3
Mastering display luminance : min: 0.0050 cd/m2, max: 4000 cd/m2
Maximum Content Light Level : 992 cd/m2
Maximum Frame-Average Light : 781 cd/m2

Audio #1
ID : 2
Format : DTS XLL
Format/Info : Digital Theater Systems
Commercial name : DTS-HD Master Audio
Codec ID : A_DTS
Duration : 1 h 33 min
Bit rate mode : Variable
Bit rate : 3 903 kb/s
Channel(s) : 6 channels
Channel layout : C L R Ls Rs LFE
Sampling rate : 48.0 kHz
Frame rate : 93.750 FPS (512 SPF)
Bit depth : 24 bits
Compression mode : Lossless
Stream size : 2.56 GiB (6%)
Title : Dub [License]
Language : Russian
Default : Yes
Forced : Yes

Audio #2
ID : 3
Format : AC-3
Format/Info : Audio Coding 3
Commercial name : Dolby Digital
Codec ID : A_AC3
Duration : 1 h 33 min
Bit rate mode : Constant
Bit rate : 640 kb/s
Channel(s) : 6 channels
Channel layout : L R C LFE Ls Rs
Sampling rate : 48.0 kHz
Frame rate : 31.250 FPS (1536 SPF)
Compression mode : Lossy
Stream size : 429 MiB (1%)
Title : Dub [License]
Language : Russian
Service kind : Complete Main
Default : No
Forced : No

Audio #3
ID : 4
Format : DTS XLL
Format/Info : Digital Theater Systems
Commercial name : DTS-HD Master Audio
Codec ID : A_DTS
Duration : 1 h 33 min
Bit rate mode : Variable
Bit rate : 2 432 kb/s
Channel(s) : 6 channels
Channel layout : C L R Ls Rs LFE
Sampling rate : 48.0 kHz
Frame rate : 93.750 FPS (512 SPF)
Bit depth : 16 bits
Compression mode : Lossless
Stream size : 1.59 GiB (4%)
Title : MVO [Tycoon studio (uncenz.)]
Language : Russian
Default : No
Forced : No

Audio #4
ID : 5
Format : DTS XLL
Format/Info : Digital Theater Systems
Commercial name : DTS-HD Master Audio
Codec ID : A_DTS
Duration : 1 h 33 min
Bit rate mode : Variable
Bit rate : 2 433 kb/s
Channel(s) : 6 channels
Channel layout : C L R Ls Rs LFE
Sampling rate : 48.0 kHz
Frame rate : 93.750 FPS (512 SPF)
Bit depth : 16 bits
Compression mode : Lossless
Stream size : 1.59 GiB (4%)
Title : DVO [Петр Гланц и Инна Королёва]
Language : Russian
Default : No
Forced : No

Audio #5
ID : 6
Format : DTS XLL
Format/Info : Digital Theater Systems
Commercial name : DTS-HD Master Audio
Codec ID : A_DTS
Duration : 1 h 33 min
Bit rate mode : Variable
Bit rate : 2 435 kb/s
Channel(s) : 6 channels
Channel layout : C L R Ls Rs LFE
Sampling rate : 48.0 kHz
Frame rate : 93.750 FPS (512 SPF)
Bit depth : 16 bits
Compression mode : Lossless
Stream size : 1.60 GiB (4%)
Title : AVO [Юрий Живов]
Language : Russian
Default : No
Forced : No

Audio #6
ID : 7
Format : AC-3
Format/Info : Audio Coding 3
Commercial name : Dolby Digital
Codec ID : A_AC3
Duration : 1 h 33 min
Bit rate mode : Constant
Bit rate : 192 kb/s
Channel(s) : 2 channels
Channel layout : L R
Sampling rate : 48.0 kHz
Frame rate : 31.250 FPS (1536 SPF)
Compression mode : Lossy
Stream size : 129 MiB (0%)
Title : MVO [ICTV]
Language : Ukrainian
Service kind : Complete Main
Default : No
Forced : No

Audio #7
ID : 8
Format : MLP FBA 16-ch
Format/Info : Meridian Lossless Packing FBA with 16-channel presentation
Commercial name : Dolby TrueHD with Dolby Atmos
Codec ID : A_TRUEHD
Duration : 1 h 33 min
Bit rate mode : Variable
Bit rate : 3 480 kb/s
Maximum bit rate : 6 033 kb/s
Channel(s) : 8 channels
Channel layout : L R C LFE Ls Rs Lb Rb
Sampling rate : 48.0 kHz
Frame rate : 1 200.000 FPS (40 SPF)
Compression mode : Lossless
Stream size : 2.28 GiB (5%)
Title : Original
Language : English
Default : No
Forced : No
Number of dynamic objects : 11
Bed channel count : 1 channel
Bed channel configuration : LFE

Audio #8
ID : 9
Format : AC-3
Format/Info : Audio Coding 3
Commercial name : Dolby Digital
Codec ID : A_AC3
Duration : 1 h 33 min
Bit rate mode : Constant
Bit rate : 640 kb/s
Channel(s) : 6 channels
Channel layout : L R C LFE Ls Rs
Sampling rate : 48.0 kHz
Frame rate : 31.250 FPS (1536 SPF)
Compression mode : Lossy
Stream size : 429 MiB (1%)
Language : English
Service kind : Complete Main
Default : No
Forced : No

Text #1
ID : 10
Format : UTF-8
Codec ID : S_TEXT/UTF8
Codec ID/Info : UTF-8 Plain Text
Duration : 1 h 27 min
Bit rate : 47 b/s
Count of elements : 607
Stream size : 30.8 KiB (0%)
Title : Full
Language : Russian
Default : No
Forced : No

Text #2
ID : 11
Format : UTF-8
Codec ID : S_TEXT/UTF8
Codec ID/Info : UTF-8 Plain Text
Duration : 1 h 27 min
Bit rate : 30 b/s
Count of elements : 651
Stream size : 19.4 KiB (0%)
Title : Full
Language : English
Default : No
Forced : No

Menu
00:00:00.000 : en:Глава 01
00:05:56.356 : en:Глава 02
00:14:52.225 : en:Глава 03
00:19:37.968 : en:Глава 04
00:24:08.280 : en:Глава 05
00:30:44.843 : en:Глава 06
00:36:18.927 : en:Глава 07
00:42:48.316 : en:Глава 08
00:49:02.564 : en:Глава 09
00:56:26.508 : en:Глава 10
01:00:40.970 : en:Глава 11
01:07:08.858 : en:Глава 12
01:13:13.097 : en:Глава 13
01:18:06.682 : en:Глава 14
01:22:26.858 : en:Глава 15
01:24:27.854 : en:Глава 16
01:28:46.029 : en:Глава 17

pb.wtf



Скачать Обитель зла 2: Апокалипсис через торрент https://i114.fastpic.ru/big/2020/1119/0e/4bb5e8652b80e923ffff0e92e8f54e0e.jpg Скачать, смотреть онлайн Обитель зла 2: Апокалипсис бесплантно в хорошем качестве Описание: Действие картины разворачивается на улицах печально известного Ракун-сити, города, контролируемого могущественной корпорацией ... 10 10 5
Торрент: Зарегистрирован [2020-11-19 13:32] · скачан: 54 раз
Статус: √ проверено
Размер: 44.26 GB
Как cкачать? Как скачать Обитель зла 2: Апокалипсис через торрент | UTorrent

% Раздел Тема Автор DL S | L
Фильмы (Blu-ray, BD-Remux, HDDVD) [ 17.34 GB ] Обитель зла 2: Апокалипсис / Resident Evil: Apocalypse [2004 BDRemux 1080p] Extended Cut / DUB AVO VO Russian Mafia Скачать
1 | 0

28-11-2019 20:33  

Отключить вcю реклaмy на сайте

    Дорогой пользователь! Огромная просьба, поблагодарите релизера, оцените раздачу и оставьте свои комментарий, если Вы скачали Обитель зла 2: Апокалипсис через торрент бесплатно!
    Комментировать посты могут только пользователи прошедшие не сложную регистрацию
    Показать сообщения:    

    Обитель зла 2: Апокалипсис через торрент
    Скачать бесплатно Обитель зла 2: Апокалипсис
    Обитель зла 2: Апокалипсис скачать торрент
    Обитель зла 2: Апокалипсис смотреть онлайн
    Cкачать фильм Обитель зла 2: Апокалипсис бесплатно
    Обитель зла 2: Апокалипсис скачать торрент в хорошем качестве
    Обитель зла 2: Апокалипсис смотреть онлайн бесплатно в хорошем качестве


    Вы не можете начинать темы
    Вы не можете отвечать на сообщения
    Вы не можете редактировать свои сообщения
    Вы не можете удалять свои сообщения
    Вы не можете голосовать в опросах
    Вы не можете прикреплять файлы к сообщениям
    Вы можете скачивать файлы