Ссылка на приватное зеркало нашего сайта всего за 1$. Внимание количество ограничено!!!

2 сезон

iTunes

1 сезон

1

2 сезон

2 сезон

iTunes

1 сезон

RePack

30

Новинка

ВАЖНО

ИГРА 18+

pack

RePack

MK11
pack

Забери бонус

RePack

jed

!!Акция!!

Alien_Rage

RePack

fifa19

RePack

Assassins Creed: Odyssey

RePack

NEED FOR SPEED™ PAYBACK

4 сезон

9 сезон

Бесстыжие 9 сезон

Все сериалы

все сериалы на PB.wtf

RePack

FAR CRY 5
  

Заклятье. Дом 32 / Malasaña 32 (Альберт Пинто) [2020, Ужасы, BD Remux 1080p] DUB [iTunes] pb.wtf

Заклятье. Дом 32 через торрент pb.wtf

Раздают: 2 [ 278 KB/s ]
Размер: 18.51 GB | Добавлен: 15 д. назад | Торрент скачан:26 раз
Скачать  

20-11-2020 05:27 Заклятье. Дом 32 Скачать торрент  

Заклятье. Дом 32 | Malasaña 32
Год выпуска: 2020
Страна: Испания, Франция
Студия: 4 Cats Pictures, Atresmedia Cine, Bambú Producciones
Жанр: Ужасы
Продолжительность: 01:44:38
Перевод: Дублированный | iTunes
Субтитры: Русские (Forced), английские (Full), испанские (Full)

Режиссер: Альберт Пинто

rating

В ролях: Бегонья Варгас, Иван Маркос, Беа Сегура, Серджо Кастелланос, Хосе Луис Де Мадарьяга, Иван Ренедо, Конча Веласко, Хавьер Ботет, Мария Бальестерос, Роза Альварес

Описание: Начало 1970-х. Мечтая начать новую жизнь в большом городе, семья въезжает в просторную квартиру, где сохранилась вся обстановка от старых жильцов. Очень скоро семья понимает, что кроме них в квартире находится нечто жуткое. Оно общается с ними через парализованного деда, оставляет записки, запрещая покидать квартиру и прибегать к помощи специалистов. Чтобы выжить, семье нужно разгадать тайну дома 32.

Качество: BD Remux 1080p
Формат: MKV

Видео: MPEG-4 AVC, 23.1 Mбит/с, 1920x1080, 23.976 кадр/с
Аудио #1 Russian: 48 kHz, AC3 Dolby Digital, 3/2 (L, C, R, l, r) + LFE ch, ~384 Kbps | iTunes
Аудио #2 Spanish: 48 kHz, DTS-HD MA, 6 ch, 1509 Kbps | Original
скриншот  скриншот  скриншот  скриншот  

Complete name : Malasana.32.2020.BDRemux.ELEKTRI4KA.UNIONGANG.mkv
Format : Matroska
Format version : Version 4 / Version 2
File size : 18.5 GiB
Duration : 1 h 44 min
Overall bit rate mode : Variable
Overall bit rate : 25.3 Mb/s
Movie name : .ELEKTRI4KA.UNIONGANG.
Encoded date : UTC 2020-11-19 21:05:07
Writing application : mkvmerge v8.3.0 ('Over the Horizon') 64bit
Writing library : libebml v1.3.1 + libmatroska v1.4.2

Video
ID : 1
Format : AVC
Format/Info : Advanced Video Codec
Format profile : High@L4.1
Format settings, CABAC : Yes
Format settings, Reference frames : 4 frames
Codec ID : V_MPEG4/ISO/AVC
Duration : 1 h 44 min
Bit rate mode : Variable
Bit rate : 23.1 Mb/s
Maximum bit rate : 30.0 Mb/s
Width : 1 920 pixels
Height : 1 080 pixels
Display aspect ratio : 16:9
Frame rate mode : Constant
Frame rate : 24.000 FPS
Color space : YUV
Chroma subsampling : 4:2:0
Bit depth : 8 bits
Scan type : Progressive
Bits/(Pixel*Frame) : 0.465
Stream size : 16.9 GiB (91%)
Default : Yes
Forced : No
Color range : Limited
Color primaries : BT.709
Transfer characteristics : BT.709
Matrix coefficients : BT.709

Audio #1
ID : 2
Format : AC-3
Format/Info : Audio Coding 3
Mode extension : CM (complete main)
Format settings, Endianness : Big
Codec ID : A_AC3
Duration : 1 h 44 min
Bit rate mode : Constant
Bit rate : 384 kb/s
Channel(s) : 6 channels
Channel positions : Front: L C R, Side: L R, LFE
Sampling rate : 48.0 kHz
Frame rate : 31.250 FPS (1536 spf)
Bit depth : 16 bits
Compression mode : Lossy
Stream size : 288 MiB (2%)
Title : Dub (iTunes)
Language : Russian
Default : Yes
Forced : No

Audio #2
ID : 3
Format : DTS
Format/Info : Digital Theater Systems
Format profile : MA / Core
Mode : 16
Format settings, Endianness : Big
Codec ID : A_DTS
Duration : 1 h 44 min
Bit rate mode : Variable / Constant
Bit rate : 1 793 kb/s / 1 509 kb/s
Channel(s) : 6 channels
Channel positions : Front: L C R, Side: L R, LFE
Sampling rate : 48.0 kHz
Frame rate : 93.750 FPS (512 spf)
Bit depth : 16 bits
Compression mode : Lossless / Lossy
Stream size : 1.31 GiB (7%)
Language : Spanish
Default : No
Forced : No

Text #1
ID : 4
Format : UTF-8
Codec ID : S_TEXT/UTF8
Codec ID/Info : UTF-8 Plain Text
Duration : 1 h 17 min
Bit rate : 0 b/s
Count of elements : 18
Stream size : 502 Bytes (0%)
Title : Forced
Language : Russian
Default : Yes
Forced : No

Text #2
ID : 5
Format : UTF-8
Codec ID : S_TEXT/UTF8
Codec ID/Info : UTF-8 Plain Text
Duration : 1 h 42 min
Bit rate : 29 b/s
Count of elements : 798
Stream size : 22.5 KiB (0%)
Title : Full
Language : English
Default : No
Forced : No

Text #3
ID : 6
Format : UTF-8
Codec ID : S_TEXT/UTF8
Codec ID/Info : UTF-8 Plain Text
Duration : 1 h 42 min
Bit rate : 32 b/s
Count of elements : 798
Stream size : 24.8 KiB (0%)
Title : Full
Language : Spanish
Default : No
Forced : No

pb.wtf



Скачать Заклятье. Дом 32 через торрент https://i6.imageban.ru/out/2020/11/19/a19d5d213bd90c9c6d574dfb5c63210a.png Скачать фильм Заклятье. Дом 32 через торрент бесплантно в хорошем качестве Описание: Начало 1970-х. Мечтая начать новую жизнь в большом городе, семья въезжает в просторную квартиру, где сохранилась вся обстановка ... 10 10 4
Торрент: Зарегистрирован [2020-11-20 05:27] · скачан: 26 раз
Статус: √ проверено
Размер: 18.51 GB
Как cкачать? Как скачать Заклятье. Дом 32 через торрент | qTorrent

% Раздел Тема Автор DL S | L
Фильмы 2019-2020 [DVDrip, WEB-DLRip, HDrip] (DUB, MVO) [ 745 MB ] Заклятье. Дом 32 / Malasaña 32 [2020 HDRip] bober100 Скачать
7 | 0
Фильмы 2019-2020 [DVDrip, WEB-DLRip, HDrip] (DUB, MVO) [ 1.45 GB ] Заклятье. Дом 32 / Malasaña 32 [2020 HDRip-AVC] Lithuania Скачать
6 | 0
Фильмы 2019-2020 [DVDrip, WEB-DLRip, HDrip] (DUB, MVO) [ 1.41 GB ] Заклятье. Дом 32 / Malasaña 32 [2020 BDRip] bober100 Скачать
14 | 1
Фильмы 2019-2020 [DVDrip, WEB-DLRip, HDrip] (DUB, MVO) [ 1.41 GB ] Заклятье. Дом 32 / Malasaña 32 [2020 BDRip] - Twi7ter Скачать
41 | 1
Фильмы [HD 720p, 1080p] (Хороший звук DUB, MVO) [ 10.54 GB ] Заклятье. Дом 32 / Malasaña 32 [2020 BDRip 1080p] bober100 Скачать
8 | 0
Фильмы [HD 720p, 1080p] (Хороший звук DUB, MVO) [ 5.5 GB ] Заклятье. Дом 32 / Malasaña 32 [2020 BDRip 720p] bober100 Скачать
8 | 0

28-11-2019 20:33  

Отключить всю рекламу на сайте

    Дорогой пользователь! Огромная просьба, поблагодарите релизера, оцените раздачу и оставьте свои комментарий, если Вы скачали Заклятье. Дом 32 через торрент бесплатно! Внесите свою лепту в развитие PiratBit!
    Комментировать посты могут только пользователи прошедшие не сложную регистрацию
    Показать сообщения:    

    Заклятье. Дом 32 через торрент
    Скачать бесплатно Заклятье. Дом 32
    Заклятье. Дом 32 скачать торрент
    Заклятье. Дом 32 смотреть онлайн
    Cкачать фильм Заклятье. Дом 32 бесплатно
    Заклятье. Дом 32 скачать торрент в хорошем качестве
    Заклятье. Дом 32 смотреть онлайн бесплатно в хорошем качестве


    Вы не можете начинать темы
    Вы не можете отвечать на сообщения
    Вы не можете редактировать свои сообщения
    Вы не можете удалять свои сообщения
    Вы не можете голосовать в опросах
    Вы не можете прикреплять файлы к сообщениям
    Вы можете скачивать файлы