Ссылка на приватное зеркало нашего сайта всего за 1$. Внимание количество ограничено!!!

2 сезон

iTunes

1 сезон

1

2 сезон

2 сезон

iTunes

1 сезон

RePack

30

Ultimate

ВАЖНО

ИГРА 18+

pack

RePack

MK11
pack

Забери бонус

RePack

jed

!!Акция!!

Alien_Rage

RePack

fifa19

RePack

Assassins Creed: Odyssey

RePack

NEED FOR SPEED™ PAYBACK

4 сезон

9 сезон

Бесстыжие 9 сезон

Все сериалы

все сериалы на PB.wtf

RePack

FAR CRY 5
  

Телохранитель бабушки / Lucky Grandma (Сеси Сили) [2019, Драма, комедия, криминал, BD Remux 1080p] MVO [iTunes] pb.wtf

Телохранитель бабушки через торрент pb.wtf

Раздают: 2 [ 21 KB/s ]
Размер: 24.4 GB | Добавлен: 3 д. назад | Торрент скачан:15 раз
Скачать  

20-11-2020 10:38 Телохранитель бабушки Скачать торрент  

Телохранитель бабушки | Lucky Grandma
Год выпуска: 2019
Страна: США
Студия: Parris Pictures, Treehead Films
Жанр: Драма, комедия, криминал
Продолжительность: 01:27:38
Перевод: Профессиональный многоголосый | iTunes
Субтитры: Английские

Режиссер: Сеси Сили

rating

В ролях: Цай Чинь, Ха Сяоюань, Майкл Тоу, Вуди Фу, Янь Си, Вай Чин Хо, Клем Чун, Эдди Юй, Мэйсон Ям, Лиман Чен

Описание: Где-то в Нью-Йорке гадалка предсказала бабушке большую удачу. Никогда не поздно начать жить в свое удовольствие. Бабушка сняла все деньги со счета и отправилась в казино. Сорвать огромный куш в казино? Да легко! Нанять телохранителя? Не проблема! Черпая вдохновение из остросюжетных телесериалов, бабушка оказывается в эпицентре настоящих бандитских разборок. Теперь несладко будет всем!

Качество: BD Remux 1080p
Формат: MKV

Видео: MPEG-4 AVC, 1920x1080, 37.8 Mbit/s, 23.976 fps
Аудио #01: 48 kHz, AC3, 5.1, 384 Kbps | iTunes | RUS |
Аудио #02: 48 kHz, DTS-HD MA, 5.1, 1669 Kbps | Оригинал | CHI |
скриншот  скриншот  скриншот  скриншот  скриншот  

General
Unique ID : 200232763744819923893452544813497148374 (0x96A36D7433C9D0F54AA8C82DDB2563D6)
Complete name : D:Video111Lucky.Grandma.2019.BDREMUX.1080p.seleZen.mkv
Format : Matroska
Format version : Version 4
File size : 24.4 GiB
Duration : 1 h 27 min
Overall bit rate mode : Variable
Overall bit rate : 39.9 Mb/s
Movie name : Lucky Grandma 2019 from seleZen
Encoded date : UTC 2020-11-20 10:20:59
Writing application : mkvmerge v40.0.0 ('Old Town Road + Pony') 64-bit
Writing library : libebml v1.3.9 + libmatroska v1.5.2

Video
ID : 1
Format : AVC
Format/Info : Advanced Video Codec
Format profile : High@L4.1
Format settings : CABAC / 4 Ref Frames
Format settings, CABAC : Yes
Format settings, Reference : 4 frames
Codec ID : V_MPEG4/ISO/AVC
Duration : 1 h 27 min
Bit rate mode : Variable
Bit rate : 37.8 Mb/s
Maximum bit rate : 40.0 Mb/s
Width : 1 920 pixels
Height : 1 080 pixels
Display aspect ratio : 16:9
Frame rate mode : Constant
Frame rate : 23.976 (24000/1001) FPS
Color space : YUV
Chroma subsampling : 4:2:0
Bit depth : 8 bits
Scan type : Progressive
Bits/(Pixel*Frame) : 0.760
Stream size : 23.1 GiB (95%)
Language : Chinese
Default : Yes
Forced : No

Audio #1
ID : 2
Format : AC-3
Format/Info : Audio Coding 3
Commercial name : Dolby Digital
Codec ID : A_AC3
Duration : 1 h 27 min
Bit rate mode : Constant
Bit rate : 384 kb/s
Channel(s) : 6 channels
Channel layout : L R C LFE Ls Rs
Sampling rate : 48.0 kHz
Frame rate : 31.250 FPS (1536 SPF)
Compression mode : Lossy
Stream size : 241 MiB (1%)
Title : iTunes
Language : Russian
Service kind : Complete Main
Default : Yes
Forced : Yes

Audio #2
ID : 3
Format : DTS XLL
Format/Info : Digital Theater Systems
Commercial name : DTS-HD Master Audio
Codec ID : A_DTS
Duration : 1 h 27 min
Bit rate mode : Variable
Bit rate : 1 669 kb/s
Channel(s) : 6 channels
Channel layout : C L R Ls Rs LFE
Sampling rate : 48.0 kHz
Frame rate : 93.750 FPS (512 SPF)
Bit depth : 16 bits
Compression mode : Lossless
Stream size : 1.02 GiB (4%)
Title : Original
Language : Chinese
Default : No
Forced : No

Text
ID : 4
Format : UTF-8
Codec ID : S_TEXT/UTF8
Codec ID/Info : UTF-8 Plain Text
Duration : 1 h 19 min
Bit rate : 27 b/s
Count of elements : 670
Stream size : 16.1 KiB (0%)
Title : Full
Language : English
Default : No
Forced : No

Menu
00:00:00.000 : en:00:00:00.000
00:02:57.427 : en:00:02:57.427
00:14:36.375 : en:00:14:36.375
00:25:17.391 : en:00:25:17.391
00:38:29.224 : en:00:38:29.224
00:49:28.799 : en:00:49:28.799
00:59:11.381 : en:00:59:11.381
01:08:38.823 : en:01:08:38.823
01:15:52.798 : en:01:15:52.798
01:21:49.530 : en:01:21:49.530

pb.wtf



Скачать Телохранитель бабушки через торрент https://c.radikal.ru/c41/2011/b7/61238ad8532d.jpg Скачать фильм Телохранитель бабушки через торрент бесплантно в хорошем качестве Описание: Где-то в Нью-Йорке гадалка предсказала бабушке большую удачу. Никогда не поздно начать жить в свое удовольствие. Бабушка сняла ... 10 10 4
Торрент: Зарегистрирован [2020-11-20 10:38] · скачан: 15 раз
Статус: √ проверено
Размер: 24.4 GB
Как cкачать? Как скачать Телохранитель бабушки через торрент | qTorrent

% Раздел Тема Автор DL S | L
Фильмы 2019-2020 [DVDrip, WEB-DLRip, HDrip] (DUB, MVO) [ 1.45 GB ] Телохранитель бабушки / Lucky Grandma [2019 HDRip-AVC] [MVO] от MediaBit Lithuania Скачать
20 | 0
Фильмы 2019-2020 [DVDrip, WEB-DLRip, HDrip] (DUB, MVO) [ 1.42 GB ] Телохранитель бабушки / Lucky Grandma [2019 BDRip] MVO Twi7ter Скачать
139 | 5
Фильмы 2019-2020 [DVDrip, WEB-DLRip, HDrip] (DUB, MVO) [ 1.46 GB ] Телохранитель бабушки / Lucky Grandma [2019 BDRip] MVO bober100 Скачать
6 | 0
Фильмы [HD 720p, 1080p] (Хороший звук DUB, MVO) [ 4.3 GB ] Телохранитель бабушки / Lucky Grandma [2019 BDRip 720p] MVO bober100 Скачать
14 | 0
Фильмы [HD 720p, 1080p] (Хороший звук DUB, MVO) [ 7.3 GB ] Телохранитель бабушки / Lucky Grandma [2019 BDRip 1080p] MVO bober100 Скачать
13 | 0

28-11-2019 20:33  

Отключить всю рекламу на сайте

    Дорогой пользователь! Огромная просьба, поблагодарите релизера, оцените раздачу и оставьте свои комментарий, если Вы скачали Телохранитель бабушки через торрент бесплатно! Внесите свою лепту в развитие PiratBit!
    Комментировать посты могут только пользователи прошедшие не сложную регистрацию
    Показать сообщения:    

    Телохранитель бабушки через торрент
    Скачать бесплатно Телохранитель бабушки
    Телохранитель бабушки скачать торрент
    Телохранитель бабушки смотреть онлайн
    Cкачать фильм Телохранитель бабушки бесплатно
    Телохранитель бабушки скачать торрент в хорошем качестве
    Телохранитель бабушки смотреть онлайн бесплатно в хорошем качестве


    Вы не можете начинать темы
    Вы не можете отвечать на сообщения
    Вы не можете редактировать свои сообщения
    Вы не можете удалять свои сообщения
    Вы не можете голосовать в опросах
    Вы не можете прикреплять файлы к сообщениям
    Вы можете скачивать файлы