Ссылка на приватное зеркало нашего сайта всего за 1$. Внимание количество ограничено!!!

2 сезон

iTunes

1 сезон

1

2 сезон

2 сезон

iTunes

1 сезон

RePack

30

Ultimate

ВАЖНО

ИГРА 18+

pack

RePack

MK11
pack

Забери бонус

RePack

jed

!!Акция!!

Alien_Rage

RePack

fifa19

RePack

Assassins Creed: Odyssey

RePack

NEED FOR SPEED™ PAYBACK

4 сезон

9 сезон

Бесстыжие 9 сезон

Все сериалы

все сериалы на PB.wtf

RePack

FAR CRY 5
  

Ундина / Undine (Кристиан Петцольд) [2020, Драма, мелодрама, BDRip 1080p] MVO [iTunes] pb.wtf

Ундина через торрент pb.wtf

Раздают: 1 [ 85 KB/s ]
Размер: 8.45 GB | Добавлен: 6 д. назад | Торрент скачан:21 раз
Скачать  

20-11-2020 15:18 Ундина Скачать торрент  

Ундина | Undine
Год выпуска: 2020
Страна: Германия, Франция
Выпущено: Schramm Film, Les Films du Losange, Zweites Deutsches Fernsehen
Жанр: Драма, мелодрама
Продолжительность: 01:29:28
Перевод: Профессиональный (многоголосый) | iTunes
Субтитры: Немецкие (Forced)

Режиссер: Кристиан Петцольд

rating

В ролях: Паула Бер, Франц Роговский, Марьям Заре, Якоб Маченц, Анна Ратте-Полле, Рафаэль Стаховяк, Хосе Баррош, Джулия Франц Рихтер, Глория Эндрес де Оливейра, Энно Требс

Описание: История всепоглощающей любви на грани жизни и смерти – классический сюжет эпохи романтизма – на фоне современного Берлина.Красавица Ундина знает все об архитектуре Восточного и Западного Берлина, ее рассказами заслушиваются посетители выставки, они пленяют сердце мечтателя Кристофа. Знакомство молодых людей мистическим образом сближает их. Но у Ундины есть тайна – ее прошлое – роковой роман с Йоханнесом, человеком, который ее предал…

Качество: BDRip 1080p
Формат: MKV

Видео: MPEG-4 AVC, 1920x1036, 12.5 Mbit/s, 24.000 fps
Аудио #01: 48 kHz, AC3, 5.1, 384 Kbps | iTunes | RUS |
Аудио #02: 48 kHz, AC3, 5.1, 640 Kbps | Оригинал | GER |
скриншот  скриншот  скриншот  скриншот  скриншот  

General
Unique ID : 234951651235526120477079095875879113939 (0xB0C20AC46DE3D15FCF674467774D14D3)
Complete name : D:Video111Undine.2020.BDRip.1080p.seleZen.mkv
Format : Matroska
Format version : Version 4
File size : 8.45 GiB
Duration : 1 h 29 min
Overall bit rate : 13.5 Mb/s
Movie name : Undine 2020 from seleZen
Encoded date : UTC 2020-11-20 14:52:51
Writing application : mkvmerge v40.0.0 ('Old Town Road + Pony') 64-bit
Writing library : libebml v1.3.9 + libmatroska v1.5.2

Video
ID : 1
Format : AVC
Format/Info : Advanced Video Codec
Format profile : High@L4.1
Format settings : CABAC / 4 Ref Frames
Format settings, CABAC : Yes
Format settings, Reference : 4 frames
Codec ID : V_MPEG4/ISO/AVC
Duration : 1 h 29 min
Bit rate : 12.5 Mb/s
Width : 1 920 pixels
Height : 1 036 pixels
Display aspect ratio : 1.85:1
Frame rate mode : Constant
Frame rate : 24.000 FPS
Color space : YUV
Chroma subsampling : 4:2:0
Bit depth : 8 bits
Scan type : Progressive
Bits/(Pixel*Frame) : 0.262
Stream size : 7.81 GiB (92%)
Title : Encoded by seleZen
Writing library : x264 core 157 r2969 d4099dd
Encoding settings : cabac=1 / ref=4 / deblock=1:-2:-2 / analyse=0x3:0x113 / me=umh / subme=10 / psy=1 / psy_rd=1.00:0.00 / mixed_ref=1 / me_range=32 / chroma_me=1 / trellis=2 / 8x8dct=1 / cqm=0 / deadzone=21,11 / fast_pskip=0 / chroma_qp_offset=-2 / threads=24 / lookahead_threads=4 / sliced_threads=0 / nr=0 / decimate=0 / interlaced=0 / bluray_compat=0 / constrained_intra=0 / bframes=9 / b_pyramid=2 / b_adapt=2 / b_bias=0 / direct=3 / weightb=1 / open_gop=0 / weightp=2 / keyint=230 / keyint_min=23 / scenecut=40 / intra_refresh=0 / rc_lookahead=40 / rc=2pass / mbtree=0 / bitrate=12500 / ratetol=1.0 / qcomp=0.60 / qpmin=0 / qpmax=51 / qpstep=4 / cplxblur=20.0 / qblur=0.5 / vbv_maxrate=50000 / vbv_bufsize=62000 / nal_hrd=none / filler=0 / ip_ratio=1.40 / pb_ratio=1.30 / aq=3:0.80
Language : German
Default : Yes
Forced : No

Audio #1
ID : 2
Format : AC-3
Format/Info : Audio Coding 3
Commercial name : Dolby Digital
Codec ID : A_AC3
Duration : 1 h 29 min
Bit rate mode : Constant
Bit rate : 384 kb/s
Channel(s) : 6 channels
Channel layout : L R C LFE Ls Rs
Sampling rate : 48.0 kHz
Frame rate : 31.250 FPS (1536 SPF)
Compression mode : Lossy
Stream size : 246 MiB (3%)
Title : iTunes
Language : Russian
Service kind : Complete Main
Default : Yes
Forced : Yes

Audio #2
ID : 3
Format : AC-3
Format/Info : Audio Coding 3
Commercial name : Dolby Digital
Codec ID : A_AC3
Duration : 1 h 29 min
Bit rate mode : Constant
Bit rate : 640 kb/s
Channel(s) : 6 channels
Channel layout : L R C LFE Ls Rs
Sampling rate : 48.0 kHz
Frame rate : 31.250 FPS (1536 SPF)
Compression mode : Lossy
Stream size : 410 MiB (5%)
Title : Original
Language : German
Service kind : Complete Main
Default : No
Forced : No

Text
ID : 4
Format : UTF-8
Codec ID : S_TEXT/UTF8
Codec ID/Info : UTF-8 Plain Text
Duration : 1 min 15 s
Bit rate : 75 b/s
Count of elements : 24
Stream size : 706 Bytes (0%)
Language : German
Default : No
Forced : No

Menu
00:00:00.000 : :Chapter 01
00:07:31.625 : :Chapter 02
00:13:08.625 : :Chapter 03
00:21:38.666 : :Chapter 04
00:29:51.875 : :Chapter 05
00:36:12.708 : :Chapter 06
00:44:54.625 : :Chapter 07
00:52:55.958 : :Chapter 08
01:03:24.041 : :Chapter 09
01:10:51.291 : :Chapter 10
01:16:14.541 : :Chapter 11
01:26:32.208 : :Chapter 12

pb.wtf



Скачать Ундина через торрент https://a.radikal.ru/a38/2011/5b/1c3cf181d1ed.jpg Скачать фильм Ундина через торрент бесплантно в хорошем качестве Описание: История всепоглощающей любви на грани жизни и смерти – классический сюжет эпохи романтизма – на фоне современного ... 10 10 2
Торрент: Зарегистрирован [2020-11-20 15:18] · скачан: 21 раз
Статус: √ проверено
Размер: 8.45 GB
Как cкачать? Как скачать Ундина через торрент | qTorrent

% Раздел Тема Автор DL S | L
Фильмы 2019-2020 [DVDrip, WEB-DLRip, HDrip] (DUB, MVO) [ 1.42 GB ] Ундина / Undine [2020 BDRip] MVO Twi7ter Скачать
20 | 0
Фильмы [HD 720p, 1080p] (Хороший звук DUB, MVO) [ 4.39 GB ] Ундина / Undine [2020 BDRip 720p] MVO bober100 Скачать
1 | 0
Фильмы (Blu-ray, BD-Remux, HDDVD) [ 13.77 GB ] Ундина / Undine [2020 BD Remux 1080p] MVO bober100 Скачать
2 | 0
Фильмы 2019-2020 [DVDrip, WEB-DLRip, HDrip] (DUB, MVO) [ 700 MB ] Ундина / Undine [2020 WEB-DLRip многоголосый закадровый ""] coc900 Скачать
2 | 0
Фильмы (WEB-DL 720p, 1080p) [ 3.39 GB ] Ундина / Undine [2020 WEB-DL 1080p] MVO bober100 Скачать
3 | 0

28-11-2019 20:33  

Отключить всю рекламу на сайте

    Дорогой пользователь! Огромная просьба, поблагодарите релизера, оцените раздачу и оставьте свои комментарий, если Вы скачали Ундина через торрент бесплатно! Внесите свою лепту в развитие PiratBit!
    Комментировать посты могут только пользователи прошедшие не сложную регистрацию
    Показать сообщения:    

    Ундина через торрент
    Скачать бесплатно Ундина
    Ундина скачать торрент
    Ундина смотреть онлайн
    Cкачать фильм Ундина бесплатно
    Ундина скачать торрент в хорошем качестве
    Ундина смотреть онлайн бесплатно в хорошем качестве


    Вы не можете начинать темы
    Вы не можете отвечать на сообщения
    Вы не можете редактировать свои сообщения
    Вы не можете удалять свои сообщения
    Вы не можете голосовать в опросах
    Вы не можете прикреплять файлы к сообщениям
    Вы можете скачивать файлы