Ссылка на приватное зеркало нашего сайта всего за 1$. Внимание количество ограничено!!!

2 сезон

iTunes

1 сезон

1

2 сезон

2 сезон

iTunes

1 сезон

RePack

30

Новинка

ВАЖНО

ИГРА 18+

pack

RePack

MK11
pack

Забери бонус

RePack

jed

!!Акция!!

Alien_Rage

RePack

fifa19

RePack

Assassins Creed: Odyssey

RePack

NEED FOR SPEED™ PAYBACK

4 сезон

9 сезон

Бесстыжие 9 сезон

Все сериалы

все сериалы на PB.wtf

RePack

FAR CRY 5
  

Телохранитель бабушки / Lucky Grandma (Сеси Сили) [2019, Драма, комедия, криминал, HDRip-AVC] [MVO] [iTunes] от MediaBit pb.wtf

Телохранитель бабушки через торрент pb.wtf

Раздают: 4 [ 0 KB/s ]
Размер: 1.45 GB | Добавлен: 9 д. назад | Торрент скачан:84 раза
Скачать  

20-11-2020 20:59 Телохранитель бабушки Скачать торрент  


Телохранитель бабушки / Lucky Grandma
Информация о фильме:
Название: Телохранитель бабушки
Оригинальное название: Lucky Grandma
Год выхода: 2019
Жанр: Драма, комедия, криминал
Режиссер: Сеси Сили
В ролях: Цай Чинь, Ха Сяоюань, Майкл Тоу, Вуди Фу, Янь Си, Вай Чин Хо, Клем Чун, Эдди Юй, Мэйсон Ям, Лиман Чен

Описание: Где-то в Нью-Йорке гадалка предсказала бабушке большую удачу. Никогда не поздно начать жить в свое удовольствие. Бабушка сняла все деньги со счета и отправилась в казино. Сорвать огромный куш в казино? Да легко! Нанять телохранителя? Не проблема! Черпая вдохновение из остросюжетных телесериалов, бабушка оказывается в эпицентре настоящих бандитских разборок. Теперь несладко будет всем!



Страна: США
Студия: Parris Pictures, Treehead Films
Продолжительность: 01:27:38
Перевод: Профессиональный (многоголосый, закадровый) - iTunes



Информация о файле:
Кодек: AVC
Формат: MKV
Качество: HDRip-AVC
Видео: MPEG-4 AVC, 1024x552 (1.85:1), 23.976 fps, 1986 kbps, 0.147
Аудио RU: AC3, 6 ch, 48 kHz, 384 kbps
Субтитры: Английские
Навигация по главам: Да

x264 info: frame I:884 Avg QP:13.78 size: 80845
x264 info: frame P:23845 Avg QP:16.94 size: 23164
x264 info: frame B:101355 Avg QP:18.65 size: 6722
General
Unique ID : 306966461114087486507338950892704645105 (0xE6EF970630F209839650C50DF1C23FF1)
Complete name : D:uTorrentРипы_от_wolf1245_MediaBitLucky Grandma 2019 HDRip-AVC from wolf1245 & MediaBit.mkv
Format : Matroska
Format version : Version 4
File size : 1.45 GiB
Duration : 1 h 27 min
Overall bit rate : 2 371 kb/s
Movie name : Lucky Grandma 2019 HDRip-AVC from wolf1245 & MediaBit
Encoded date : UTC 2020-11-20 20:29:40
Writing application : mkvmerge v51.0.0 ('I Wish') 64-bit
Writing library : libebml v1.4.0 + libmatroska v1.6.2
Video
ID : 1
Format : AVC
Format/Info : Advanced Video Codec
Format profile : High@L4.1
Format settings : CABAC / 12 Ref Frames
Format settings, CABAC : Yes
Format settings, Reference frames : 12 frames
Codec ID : V_MPEG4/ISO/AVC
Duration : 1 h 27 min
Bit rate : 1 986 kb/s
Width : 1 024 pixels
Height : 552 pixels
Display aspect ratio : 1.85:1
Frame rate mode : Constant
Frame rate : 23.976 (24000/1001) FPS
Color space : YUV
Chroma subsampling : 4:2:0
Bit depth : 8 bits
Scan type : Progressive
Bits/(Pixel*Frame) : 0.147
Stream size : 1.22 GiB (84%)
Title : wolf1245 & MediaBit
Writing library : x264 core 157 r2958 57baac4
Encoding settings : cabac=1 / ref=12 / deblock=1:-3:-3 / analyse=0x3:0x133 / me=umh / subme=11 / psy=1 / psy_rd=1.03:0.03 / mixed_ref=1 / me_range=48 / chroma_me=1 / trellis=2 / 8x8dct=1 / cqm=0 / deadzone=21,11 / fast_pskip=0 / chroma_qp_offset=-3 / threads=10 / lookahead_threads=2 / sliced_threads=0 / nr=0 / decimate=0 / interlaced=0 / bluray_compat=0 / constrained_intra=0 / bframes=12 / b_pyramid=2 / b_adapt=2 / b_bias=0 / direct=3 / weightb=1 / open_gop=0 / weightp=2 / keyint=240 / keyint_min=24 / scenecut=40 / intra_refresh=0 / rc_lookahead=100 / rc=2pass / mbtree=0 / bitrate=1986 / ratetol=1.0 / qcomp=0.60 / qpmin=0 / qpmax=69 / qpstep=4 / cplxblur=20.0 / qblur=0.5 / vbv_maxrate=50000 / vbv_bufsize=62500 / nal_hrd=none / filler=0 / ip_ratio=1.40 / pb_ratio=1.30 / aq=2:0.80
Language : Chinese
Default : Yes
Forced : No
Color range : Limited
Color primaries : BT.709
Transfer characteristics : BT.709
Matrix coefficients : BT.709
Audio
ID : 2
Format : AC-3
Format/Info : Audio Coding 3
Commercial name : Dolby Digital
Codec ID : A_AC3
Duration : 1 h 27 min
Bit rate mode : Constant
Bit rate : 384 kb/s
Channel(s) : 6 channels
Channel layout : L R C LFE Ls Rs
Sampling rate : 48.0 kHz
Frame rate : 31.250 FPS (1536 SPF)
Compression mode : Lossy
Stream size : 241 MiB (16%)
Title : MVO | iTunes
Language : Russian
Service kind : Complete Main
Default : Yes
Forced : No
Text
ID : 3
Format : UTF-8
Codec ID : S_TEXT/UTF8
Codec ID/Info : UTF-8 Plain Text
Duration : 1 h 19 min
Bit rate : 27 b/s
Count of elements : 670
Stream size : 16.1 KiB (0%)
Title : Full
Language : English
Default : No
Forced : No
Menu
00:00:00.000 : :00:00:00.000
00:02:57.427 : :00:02:57.427
00:14:36.375 : :00:14:36.375
00:25:17.391 : :00:25:17.391
00:38:29.224 : :00:38:29.224
00:49:28.799 : :00:49:28.799
00:59:11.381 : :00:59:11.381
01:08:38.823 : :01:08:38.823
01:15:52.798 : :01:15:52.798
01:21:49.530 : :01:21:49.530
Релиз от: & &
pb.wtf



Скачать Телохранитель бабушки через торрент https://c.radikal.ru/c41/2011/b7/61238ad8532d.jpg Скачать фильм Телохранитель бабушки через торрент бесплантно в хорошем качестве Описание: Где-то в Нью-Йорке гадалка предсказала бабушке большую удачу. Никогда не поздно начать жить в свое удовольствие. Бабушка сняла ... 10 10 1
Торрент: Зарегистрирован [2020-11-20 20:59] · скачан: 84 раз
Статус: √ проверено
Размер: 1.45 GB
Как cкачать? Как скачать Телохранитель бабушки через торрент | qTorrent

28-11-2019 20:33  

Отключить всю рекламу на сайте

23-11-2020 16:05 Телохранитель бабушки Скачать торрент  

Мой вам совет, не задумываясь мимо pb.wtf



    Дорогой пользователь! Огромная просьба, поблагодарите релизера, оцените раздачу и оставьте свои комментарий, если Вы скачали Телохранитель бабушки через торрент бесплатно! Внесите свою лепту в развитие PiratBit!
    Комментировать посты могут только пользователи прошедшие не сложную регистрацию
    Показать сообщения:    

    Телохранитель бабушки через торрент
    Скачать бесплатно Телохранитель бабушки
    Телохранитель бабушки скачать торрент
    Телохранитель бабушки смотреть онлайн
    Cкачать фильм Телохранитель бабушки бесплатно
    Телохранитель бабушки скачать торрент в хорошем качестве
    Телохранитель бабушки смотреть онлайн бесплатно в хорошем качестве


    Вы не можете начинать темы
    Вы не можете отвечать на сообщения
    Вы не можете редактировать свои сообщения
    Вы не можете удалять свои сообщения
    Вы не можете голосовать в опросах
    Вы не можете прикреплять файлы к сообщениям
    Вы можете скачивать файлы