Ссылка на приватное зеркало нашего сайта всего за 1$. Внимание количество ограничено!!!

2 сезон

iTunes

1 сезон

1

2 сезон

2 сезон

iTunes

1 сезон

RePack

30

Ultimate

ВАЖНО

ИГРА 18+

pack

RePack

MK11
pack

Забери бонус

RePack

jed

!!Акция!!

Alien_Rage

RePack

fifa19

RePack

Assassins Creed: Odyssey

RePack

NEED FOR SPEED™ PAYBACK

4 сезон

9 сезон

Бесстыжие 9 сезон

Все сериалы

все сериалы на PB.wtf

RePack

FAR CRY 5
  

Бесполезный / Useless (Джозайя Бёрдик) [2020, Драма, семейный, WEB-DL 1080p] MVO [Официальный звук] pb.wtf

Бесполезный через торрент pb.wtf

Раздают: 1 [ 0 KB/s ]
Размер: 3.35 GB | Добавлен: 8 д. назад | Торрент скачан:42 раза
Скачать  

21-11-2020 05:58 Бесполезный Скачать торрент  

Бесполезный | Useless
Год выпуска: 2020
Страна: США
Студия: Fearless Pictures, Backcountry Media
Жанр: Драма, семейный
Продолжительность: 01:30:19
Перевод: Профессиональный (многоголосый) | Официальный звук
Субтитры: отсутствуют

Режиссер: Джозайя Бёрдик

rating


В ролях: Трэвис Брюэр, Марк Брейсич, Риннан Хендерсон, Эмбер Мэйсон, Брук Уилсон, Лекси Анастэйша, Скотт МакКоли, Мэри Риитано, Джозия Бердик, Майкл Кристенсен

Описание: После смерти матери 17-летняя Джесси переезжает к своим дяде и тете в западную Монтану. В новой школе девушкой интересуется местный наездник, занимающийся булл-райдингом. Скачки – единственная вещь, связывающая Джесси с матерью, и она изо всех сил идет к своей мечте, хотя у нее и нет собственной лошади. Вскоре ее дядя Мик выкупает для Джесси лошадь, и она начинает заниматься любимым делом.

Качество: WEB-DL 1080p
Формат: MKV

Видео: MPEG-4 AVC, ~ 5000 Кбит/с, 1920x1080
Аудио: 48.0 kHz, AC3 Dolby Digital, 2/0 (L,R) ch, ~ 192 kbps
скриншот  скриншот  скриншот  скриншот  

Общее
Уникальный идентификатор : 246678695421251891397933892353488512965 (0xB99496AF7FFCE1F8BF3AAC645416E7C5)
Полное имя : C:\Useless.2020.WEB-DL.1080p.ExKinoRay.mkv
Формат : Matroska
Версия формата : Version 2
Размер файла : 3,35 Гбайт
Продолжительность : 1 ч. 30 м.
Общий поток : 5306 Кбит/сек
Дата кодирования : UTC 2020-11-21 01:15:36
Программа кодирования : mkvmerge v5.8.0 ('No Sleep / Pillow') built on Sep 2 2012 15:37:04
Библиотека кодирования : libebml v1.2.3 + libmatroska v1.3.0

Видео
Идентификатор : 1
Формат : AVC
Формат/Информация : Advanced Video Codec
Профиль формата : High@L4
Настройки формата : CABAC / 4 Ref Frames
Параметр CABAC формата : Да
Параметр RefFrames формата : 4 кадра
Идентификатор кодека : V_MPEG4/ISO/AVC
Продолжительность : 1 ч. 30 м.
Битрейт : 5009 Кбит/сек
Ширина : 1920 пикселей
Высота : 1080 пикселей
Соотношение сторон : 16:9
Режим частоты кадров : Постоянный
Частота кадров : 24,000 кадра/сек
Цветовое пространство : YUV
Субдискретизация насыщенности : 4:2:0
Битовая глубина : 8 бит
Тип развёртки : Прогрессивная
Бит/(Пиксели*Кадры) : 0.101
Размер потока : 3,16 Гбайт (94%)
Язык : Russian
Default : Да
Forced : Нет

Аудио
Идентификатор : 2
Формат : AC-3
Формат/Информация : Audio Coding 3
Коммерческое название : Dolby Digital
Идентификатор кодека : A_AC3
Продолжительность : 1 ч. 30 м.
Вид битрейта : Постоянный
Битрейт : 192 Кбит/сек
Каналы : 2 канала
ChannelLayout : L R
Частота : 48,0 КГц
Частота кадров : 31,250 кадров/сек (1536 SPF)
Битовая глубина : 16 бит
Метод сжатия : С потерями
Размер потока : 124 Мбайт (4%)
Язык : Russian
ServiceKind/String : Complete Main
Default : Да
Forced : Нет

pb.wtf



Скачать Бесполезный через торрент https://d.radikal.ru/d40/2011/97/a13e4ec837d1.jpg Скачать фильм Бесполезный через торрент бесплантно в хорошем качестве Описание: После смерти матери 17-летняя Джесси переезжает к своим дяде и тете в западную Монтану. В новой школе девушкой интересуется ... 9.2 10 6
Торрент: Зарегистрирован [2020-11-21 05:58] · скачан: 42 раз
Статус: T временная
Размер: 3.35 GB
Как cкачать? Как скачать Бесполезный через торрент | qTorrent

28-11-2019 20:33  

Отключить всю рекламу на сайте

    Дорогой пользователь! Огромная просьба, поблагодарите релизера, оцените раздачу и оставьте свои комментарий, если Вы скачали Бесполезный через торрент бесплатно! Внесите свою лепту в развитие PiratBit!
    Комментировать посты могут только пользователи прошедшие не сложную регистрацию
    Показать сообщения:    

    Бесполезный через торрент
    Скачать бесплатно Бесполезный
    Бесполезный скачать торрент
    Бесполезный смотреть онлайн
    Cкачать фильм Бесполезный бесплатно
    Бесполезный скачать торрент в хорошем качестве
    Бесполезный смотреть онлайн бесплатно в хорошем качестве


    Вы не можете начинать темы
    Вы не можете отвечать на сообщения
    Вы не можете редактировать свои сообщения
    Вы не можете удалять свои сообщения
    Вы не можете голосовать в опросах
    Вы не можете прикреплять файлы к сообщениям
    Вы можете скачивать файлы