Ссылка на приватное зеркало нашего сайта всего за 1$. Внимание количество ограничено!!!

2 сезон

iTunes

1 сезон

1

2 сезон

2 сезон

iTunes

1 сезон

RePack

30

Ultimate

ВАЖНО

ИГРА 18+

pack

RePack

MK11
pack

Забери бонус

RePack

jed

!!Акция!!

Alien_Rage

RePack

fifa19

RePack

Assassins Creed: Odyssey

RePack

NEED FOR SPEED™ PAYBACK

4 сезон

9 сезон

Бесстыжие 9 сезон

Все сериалы

все сериалы на PB.wtf

RePack

FAR CRY 5
  

Аквамен / Aquaman (Джеймс Ван) [2018 г., фантастика, фэнтези, боевик, приключения, WEB-DLRip 720p / 60 FPS, Дубляж] ( Open Matte ) от R.G. HD-Films pb.wtf

Аквамен через торрент pb.wtf

Раздают: 3 [ 0 KB/s ]
Размер: 6.35 GB | Добавлен: 8 д. назад | Торрент скачан:74 раза
Скачать  

21-11-2020 10:47 Аквамен Скачать торрент  

Аквамен / Aquaman
Год выпуска: 2018
Страна: Австралия, США
Жанр: фантастика, фэнтези, боевик, приключения
Продолжительность: 02:23:19
Перевод: Дубляж
Субтитры: Русские, Украинские, Английские

Режиссер: Джеймс Ван

Бюджет: $160 000 000
Премьера в мире: 26 ноября 2018

rating

В ролях: Джейсон Момоа, Эмбер Хёрд, Дольф Лундгрен, Николь Кидман, Джули Эндрюс, Патрик Уилсон, Уиллем Дефо, Грэм МакТавиш, Талия Джейд, Джимон Хонсу

Описание: Действие фильма разворачивается в необъятном и захватывающем подводном мире семи морей, а сюжет знакомит зрителей с историей происхождения получеловека-полуатланта Артура Карри и ключевыми событиями его жизни — теми, что заставят его не только столкнуться с самим собой, но и выяснить, достоин ли он быть тем, кем ему суждено… царем!

Качество: WEB-DLRip 720p / 60 FPS
Формат: MKV
Видео кодек: H.264
Аудио кодек: AC3
Видео: x264, 1280 x 720 ( 16:9 ), 5 962 kbps, 60,000 fps, ( 0.108 bpp)
Аудио#1: Русский, AC-3, 48.0 KHz, 6 ch, 384 Kbps Dub
Релиз от: Автор рипа: slaventi-69
x264 [info]: frame I:2399 Avg QP:17.31 size: 74151
x264 [info]: frame P:120203 Avg QP:18.48 size: 25404
x264 [info]: frame B:392761 Avg QP:21.66 size: 8070
x264 [info]: consecutive B-frames: 2.1% 1.9% 8.2% 18.3% 56.0% 13.6%


Общее
Уникальный идентификатор : 235009350378085169483658444696387488271 (0xB0CD278DFE9998B3D8DB92ADC6B68A0F)
Полное имя : E:\Temp\Заказ\Aquaman.(2018).WEB-DLRip.720p.(60 Fps).Open.Matte.mkv
Формат : Matroska
Версия формата : Version 4
Размер файла : 6,35 Гбайт
Продолжительность : 2 ч. 23 м.
Общий поток : 6 348 Кбит/сек
Название фильма : Аквамен / Aquaman (2018) WEB-DLRip 720p (60 Fps) | Open Matte
Описание : Действие фильма разворачивается в необъятном и захватывающем подводном мире семи морей, а сюжет знакомит зрителей с историей происхождения получеловека-полуатланта Артура Карри и ключевыми событиями его жизни — теми, что заставят его не только столкнуться с самим собой, но и выяснить, достоин ли он быть тем, кем ему суждено… царем!
Дата кодирования : UTC 2020-11-15 10:56:27
Программа кодирования : mkvmerge v35.0.0 ('All The Love In The World') 64-bit
Библиотека кодирования : libebml v1.3.9 + libmatroska v1.5.2 / Lavf57.71.100
Примечание : Open Matte
ACTORS : Jason Momoa, Amber Heard, Willem Dafoe, Patrick Wilson, Nicole Kidman, Dolph Lundgren, Yahya Abdul-Mateen II, Temuera Morrison, Ludi Lin, Michael Beach, Randall Park, Graham McTavish, Leigh Whannell, Tainui Kirkwood, Tamor Kirkwood, Denzel Quirke, Kaan Guldur, Otis Dhanji, Kekoa Kekumano, Julie Andrews, John Rhys-Davies, Djimon Hounsou, Andrew Crawford, Sophia Forrest, Natalia Safran, Micah Ohlman, Jack Andrew, Frankie Creagh-Leslie, Sophia Emberson-Bain, Ilya Melnikoff, Hank Amos, Kyryl Koltsov, Patrick Cox, Luke Owen, Robert Longstreet, Devika Parikh, Sonny Le, Jon Fabian, Mabel Tamone, Rita Dinardo, Anthony Standish, Nicolette Bianca, Victor Leto, Vincent B. Gorce, Gabriella Petkova, Oriana Iacono, Pearl Grantham, Noa Tsuchiya, Alice Lanesbury, Nicolas Bosc, Joshua Levinson
COMPOSER : Joseph Bishara
COUNTRY : Australia, United States
DATE : 2018-12-07
DIRECTOR : James Wan
GENRE : боевик, приключения, фэнтези, фантастика
HD_VIDEO : 1
ITUNEXTC : ru-movie|12+|200|
Язык : und
MEDIA_TYPE : 9
ORIGINAL_TITLE : Aquaman
PRODUCER : Zack Snyder, Deborah Snyder, Rob Cowan, Peter Safran, Charles Roven
PUBLISHER : DC Comics, DC Entertainment, Warner Bros. Pictures, The Safran Company, Mad Ghost Productions, Rodeo FX, Panoramic Pictures
RATING : 6.95
WRITER : David Leslie Johnson-McGoldrick, Will Beall

Видео
Идентификатор : 1
Формат : AVC
Формат/Информация : Advanced Video Codec
Профиль формата : High@L4.1
Настройки формата : CABAC / 9 Ref Frames
Параметр CABAC формата : Да
Параметр RefFrames формата : 9 кадров
Идентификатор кодека : V_MPEG4/ISO/AVC
Продолжительность : 2 ч. 23 м.
Битрейт : 5 962 Кбит/сек
Ширина : 1 280 пикселей
Высота : 720 пикселей
Соотношение сторон : 16:9
Режим частоты кадров : Постоянный
Частота кадров : 60,000 кадров/сек
Цветовое пространство : YUV
Субдискретизация насыщенности : 4:2:0
Битовая глубина : 8 бит
Тип развёртки : Прогрессивная
Бит/(Пиксели*Кадры) : 0.108
Размер потока : 5,96 Гбайт (94%)
Заголовок : slaventi-69 ( R.G. HD-Films | 60 fps )
Библиотека кодирования : x264 core 130 r2273 b3065e6
Настройки программы : cabac=1 / ref=9 / deblock=1:0:0 / analyse=0x3:0x113 / me=umh / subme=9 / psy=1 / psy_rd=1.00:0.00 / mixed_ref=1 / me_range=32 / chroma_me=1 / trellis=2 / 8x8dct=1 / cqm=0 / deadzone=21,11 / fast_pskip=1 / chroma_qp_offset=-2 / threads=10 / lookahead_threads=4 / sliced_threads=0 / nr=0 / decimate=1 / interlaced=0 / bluray_compat=0 / constrained_intra=0 / bframes=5 / b_pyramid=2 / b_adapt=2 / b_bias=0 / direct=1 / weightb=1 / open_gop=0 / weightp=2 / keyint=600 / keyint_min=23 / scenecut=40 / intra_refresh=0 / rc=crf / mbtree=0 / crf=17.8 / qcomp=0.60 / qpmin=0 / qpmax=69 / qpstep=4 / ip_ratio=1.40 / pb_ratio=1.30 / aq=1:1.00
Язык : English
Default : Да
Forced : Нет

Аудио
Идентификатор : 2
Формат : AC-3
Формат/Информация : Audio Coding 3
Коммерческое название : Dolby Digital
Идентификатор кодека : A_AC3
Продолжительность : 2 ч. 23 м.
Вид битрейта : Постоянный
Битрейт : 384 Кбит/сек
Каналы : 6 каналов
Channel layout : L R C LFE Ls Rs
Частота : 48,0 КГц
Частота кадров : 31,250 кадров/сек (1536 SPF)
Метод сжатия : С потерями
Размер потока : 393 Мбайт (6%)
Заголовок : Dub
Язык : Russian
Service kind : Complete Main
Default : Да
Forced : Нет

Текст #1
Идентификатор : 3
Формат : UTF-8
Идентификатор кодека : S_TEXT/UTF8
Идентификатор кодека/Информация : UTF-8 Plain Text
Продолжительность : 2 ч. 14 м.
Битрейт : 1 бит/сек
Count of elements : 27
Размер потока : 1,23 Кбайт (0%)
Заголовок : Forced
Язык : Russian
Default : Нет
Forced : Нет

Текст #2
Идентификатор : 4
Формат : UTF-8
Идентификатор кодека : S_TEXT/UTF8
Идентификатор кодека/Информация : UTF-8 Plain Text
Продолжительность : 2 ч. 22 м.
Битрейт : 55 бит/сек
Count of elements : 1119
Размер потока : 58,0 Кбайт (0%)
Заголовок : Full
Язык : Russian
Default : Нет
Forced : Нет

Текст #3
Идентификатор : 5
Формат : UTF-8
Идентификатор кодека : S_TEXT/UTF8
Идентификатор кодека/Информация : UTF-8 Plain Text
Продолжительность : 2 ч. 22 м.
Битрейт : 1 бит/сек
Count of elements : 32
Размер потока : 1,54 Кбайт (0%)
Заголовок : Forced
Язык : Ukrainian
Default : Нет
Forced : Нет

Текст #4
Идентификатор : 6
Формат : UTF-8
Идентификатор кодека : S_TEXT/UTF8
Идентификатор кодека/Информация : UTF-8 Plain Text
Продолжительность : 2 ч. 14 м.
Битрейт : 38 бит/сек
Count of elements : 1132
Размер потока : 37,5 Кбайт (0%)
Заголовок : Full SDH
Язык : English
Default : Нет
Forced : Нет

Меню
00:00:00.000 : :1
00:11:07.293 : :2
00:22:09.621 : :3
00:30:09.017 : :4
00:40:26.718 : :5
00:50:22.647 : :6
01:01:13.756 : :7
01:08:55.091 : :8
01:21:39.272 : :9
01:34:48.436 : :10
01:39:35.431 : :11
01:49:30.818 : :12
02:01:34.541 : :13
02:10:17.897 : :14

Просьба к переливающим на другие сайты, в оформлении указывайте пожалуйста авторство группы R.G. HD-Films pb.wtf



Скачать Аквамен через торрент https://a.radikal.ru/a23/1903/64/2efb2335ba6b.jpg Скачать фильм Аквамен через торрент бесплантно в хорошем качестве Описание: Действие фильма разворачивается в необъятном и захватывающем подводном мире семи морей, а сюжет знакомит зрителей с историей ... 9.3 10 12
Info! Золотая раздача, скачанное не засчитывается.
Торрент: Зарегистрирован [2020-11-21 10:47] · скачан: 74 раз
Статус: √ проверено
Размер: 6.35 GB
Как cкачать? Как скачать Аквамен через торрент | qTorrent

28-11-2019 20:33  

Отключить всю рекламу на сайте

    Дорогой пользователь! Огромная просьба, поблагодарите релизера, оцените раздачу и оставьте свои комментарий, если Вы скачали Аквамен через торрент бесплатно! Внесите свою лепту в развитие PiratBit!
    Комментировать посты могут только пользователи прошедшие не сложную регистрацию
    Показать сообщения:    

    Аквамен через торрент
    Скачать бесплатно Аквамен
    Аквамен скачать торрент
    Аквамен смотреть онлайн
    Cкачать фильм Аквамен бесплатно
    Аквамен скачать торрент в хорошем качестве
    Аквамен смотреть онлайн бесплатно в хорошем качестве


    Вы не можете начинать темы
    Вы не можете отвечать на сообщения
    Вы не можете редактировать свои сообщения
    Вы не можете удалять свои сообщения
    Вы не можете голосовать в опросах
    Вы не можете прикреплять файлы к сообщениям
    Вы можете скачивать файлы