Ссылка на приватное зеркало нашего сайта всего за 1$. Внимание количество ограничено!!!

2 сезон

iTunes

1 сезон

1

2 сезон

2 сезон

iTunes

1 сезон

RePack

30

Ultimate

ВАЖНО

ИГРА 18+

pack

RePack

MK11
pack

Забери бонус

RePack

jed

!!Акция!!

Alien_Rage

RePack

fifa19

RePack

Assassins Creed: Odyssey

RePack

NEED FOR SPEED™ PAYBACK

4 сезон

9 сезон

Бесстыжие 9 сезон

Все сериалы

все сериалы на PB.wtf

RePack

FAR CRY 5
  

ИКСтраординарное Рождество / Alien Xmas (Стивен Чиодо) [2020, Мультфильм, фантастика, семейный, WEB-DL 1080p] DUB [Netflix] pb.wtf

ИКСтраординарное Рождество через торрент pb.wtf

Раздают: 10 [ 10 KB/s ]
Размер: 1.34 GB | Добавлен: 8 д. назад | Торрент скачан:97 раз
Скачать  

21-11-2020 20:35 ИКСтраординарное Рождество Скачать торрент  

ИКСтраординарное Рождество | Alien Xmas
Год выпуска: 2020
Страна: США
Выпущено: Chiodo Brothers Productions, Golem Creations, Sonar Entertainment
Жанр: Мультфильм, фантастика, семейный
Продолжительность: 00:42:25
Перевод: Дублированный | Netflix
Субтитры: Русские (Full), Английские (Full)

Режиссер: Стивен Чиодо

rating

В ролях: Ди Брэдли Бейкер, Барбара Гудсон, Кирк Торнтон, Тони Оливер, Кейтлин Роброк, Мэдисон Рохас, Джессика Ги, Стив Стейли, Keythe Farley, Джакари Фрэйзер

Описание: Инопланетяне пытаются украсть гравитацию Земли, и только дух Рождества и маленький инопланетянин по имени Икс могут спасти мир.

Качество: WEB-DL 1080p
Формат: MKV

Видео: MPEG-4 AVC, 3096 Kb/s, 1920x1080, 24.000 fps
Аудио#1 Russian: 48 kHz, Enhanced AC3 Dolby Digital, 3/2 (L, C, R, l, r) + LFE ch, ~640 Kbps | Netflix
Аудио#2 English: 48 kHz, Enhanced AC3 Dolby Digital + Atmos, 3/2 (L, C, R, l, r) + LFE ch, ~768 Kbps | Original
скриншот  скриншот  скриншот  скриншот  

Video
ID : 1
Format : AVC
Format/Info : Advanced Video Codec
Format profile : High@L4
Format settings : CABAC / 4 Ref Frames
Format settings, CABAC : Yes
Format settings, Reference frames : 4 frames
Codec ID : V_MPEG4/ISO/AVC
Duration : 42 min 25 s
Bit rate : 3 096 kb/s
Width : 1 920 pixels
Height : 1 080 pixels
Display aspect ratio : 16:9
Frame rate mode : Constant
Frame rate : 24.000 FPS
Color space : YUV
Chroma subsampling : 4:2:0
Bit depth : 8 bits
Scan type : Progressive
Bits/(Pixel*Frame) : 0.062
Stream size : 939 MiB (69%)
Writing library : x264 core 157 r2932 303c484
Encoding settings : cabac=1 / ref=3 / deblock=1:0:0 / analyse=0x3:0x113 / me=hex / subme=7 / psy=1 / psy_rd=1.00:0.00 / mixed_ref=1 / me_range=16 / chroma_me=1 / trellis=1 / 8x8dct=1 / cqm=0 / deadzone=21, 11 / fast_pskip=1 / chroma_qp_offset=-2 / threads=3 / lookahead_threads=1 / sliced_threads=0 / nr=0 / decimate=1 / interlaced=0 / bluray_compat=0 / constrained_intra=0 / bframes=3 / b_pyramid=2 / b_adapt=1 / b_bias=0 / direct=1 / weightb=1 / open_gop=0 / weightp=2 / keyint=250 / keyint_min=25 / scenecut=40 / intra_refresh=0 / rc_lookahead=40 / rc=crf / mbtree=1 / crf=20.0 / qcomp=0.60 / qpmin=0 / qpmax=69 / qpstep=4 / ip_ratio=1.40 / aq=1:1.00
Default : Yes
Forced : No

Audio #1
ID : 2
Format : E-AC-3
Format/Info : Enhanced AC-3
Commercial name : Dolby Digital Plus
Codec ID : A_EAC3
Duration : 42 min 27 s
Bit rate mode : Constant
Bit rate : 640 kb/s
Channel(s) : 6 channels
Channel layout : L R C LFE Ls Rs
Sampling rate : 48.0 kHz
Frame rate : 31.250 FPS (1536 SPF)
Compression mode : Lossy
Stream size : 194 MiB (14%)
Language : Russian
Service kind : Complete Main
Default : Yes
Forced : No

Audio #2
ID : 3
Format : E-AC-3 JOC
Format/Info : Enhanced AC-3 with Joint Object Coding
Commercial name : Dolby Digital Plus with Dolby Atmos
Codec ID : A_EAC3
Duration : 42 min 27 s
Bit rate mode : Constant
Bit rate : 768 kb/s
Channel(s) : 6 channels
Channel layout : L R C LFE Ls Rs
Sampling rate : 48.0 kHz
Frame rate : 31.250 FPS (1536 SPF)
Compression mode : Lossy
Stream size : 233 MiB (17%)
Language : English
Service kind : Complete Main
Default : No
Forced : No
Complexity index : 16
Number of dynamic objects : 15
Bed channel count : 1 channel
Bed channel configuration : LFE

Text #1
ID : 4
Format : UTF-8
Codec ID : S_TEXT/UTF8
Codec ID/Info : UTF-8 Plain Text
Duration : 39 min 26 s
Bit rate : 59 b/s
Count of elements : 391
Stream size : 17.2 KiB (0%)
Language : Russian
Default : No
Forced : No

Text #2
ID : 5
Format : UTF-8
Codec ID : S_TEXT/UTF8
Codec ID/Info : UTF-8 Plain Text
Duration : 37 min 2 s
Bit rate : 63 b/s
Count of elements : 638
Stream size : 17.1 KiB (0%)
Language : English
Default : No
Forced : No

pb.wtf



Скачать ИКСтраординарное Рождество через торрент https://d.radikal.ru/d38/2011/31/f7c620c38115.png Скачать фильм ИКСтраординарное Рождество через торрент бесплантно в хорошем качестве Описание: Инопланетяне пытаются украсть гравитацию Земли, и только дух Рождества и маленький инопланетянин по имени Икс могут спасти ... 8.5 10 6
Торрент: Зарегистрирован [2020-11-21 20:35] · скачан: 97 раз
Статус: √ проверено
Размер: 1.34 GB
Как cкачать? Как скачать ИКСтраординарное Рождество через торрент | qTorrent

28-11-2019 20:33  

Отключить всю рекламу на сайте

    Дорогой пользователь! Огромная просьба, поблагодарите релизера, оцените раздачу и оставьте свои комментарий, если Вы скачали ИКСтраординарное Рождество через торрент бесплатно! Внесите свою лепту в развитие PiratBit!
    Комментировать посты могут только пользователи прошедшие не сложную регистрацию
    Показать сообщения:    

    ИКСтраординарное Рождество через торрент
    Скачать бесплатно ИКСтраординарное Рождество
    ИКСтраординарное Рождество скачать торрент
    ИКСтраординарное Рождество смотреть онлайн
    Cкачать фильм ИКСтраординарное Рождество бесплатно
    ИКСтраординарное Рождество скачать торрент в хорошем качестве
    ИКСтраординарное Рождество смотреть онлайн бесплатно в хорошем качестве


    Вы не можете начинать темы
    Вы не можете отвечать на сообщения
    Вы не можете редактировать свои сообщения
    Вы не можете удалять свои сообщения
    Вы не можете голосовать в опросах
    Вы не можете прикреплять файлы к сообщениям
    Вы можете скачивать файлы