Ссылка на приватное зеркало нашего сайта всего за 1$. Внимание количество ограничено!!!

2 сезон

iTunes

1 сезон

1

2 сезон

2 сезон

iTunes

1 сезон

RePack

30

Новинка

ВАЖНО

ИГРА 18+

pack

RePack

MK11
pack

Забери бонус

RePack

jed

!!Акция!!

Alien_Rage

RePack

fifa19

RePack

Assassins Creed: Odyssey

RePack

NEED FOR SPEED™ PAYBACK

4 сезон

9 сезон

Бесстыжие 9 сезон

Все сериалы

все сериалы на PB.wtf

RePack

FAR CRY 5
  

Облака / Clouds (Джастин Бальдони) [2020, Драма, WEB-DLRip-AVC] [MVO] [ MUZOBOZ ] от MediaBit pb.wtf

Облака через торрент pb.wtf

Раздают: 2 [ 3 KB/s ]
Размер: 1.45 GB | Добавлен: 8 д. назад | Торрент скачан:34 раза
Скачать  

21-11-2020 20:38 Облака Скачать торрент  


Облака / Clouds
Информация о фильме:
Название: Облака
Оригинальное название: Clouds
Год выхода: 2020
Жанр: Драма
Режиссер: Джастин Бальдони
В ролях: Стеффан Аргус, Сабрина Карпентер, Мэдисон Айсмен, Нив Кэмпбелл, Том Эверетт Скотт, Лил Рел Ховери, Дилан Эверетт, Вивьен Эндикотт Дуглас, Саммер Х. Хауэлл, Милен Робик

Описание: 17-летнему парню диагностируют редкий рак костей. За несколько месяцев до смерти он влюбляется в девушку Эми и, несмотря на окружающую его грусть, находит в себе силы написать песню, чтобы отблагодарить всех своих друзей и близких.



Страна: США
Студия: Mad Chance, Warner Bros., Wayfarer Studios
Продолжительность: 02:00:59
Перевод: Любительский (многоголосый, закадровый) - MUZOBOZ



Информация о файле:
Кодек: AVC
Формат: MKV
Качество: WEB-DLRip-AVC
Видео: MPEG-4 AVC, 1024x428 (2.40:1), 23.976 fps, 1525 kbps, 0.145
Аудио RU: AC3, 2 ch, 48 kHz, 192 kbps
Субтитры: Английские

x264 info: frame I:1304 Avg QP:14.99 size: 58347
x264 info: frame P:40168 Avg QP:18.42 size: 17207
x264 info: frame B:132571 Avg QP:20.38 size: 4630
General
Unique ID : 195772496185744443249001569371189038947 (0x93486948EF775CD41E84E54F53624F63)
Complete name : D:uTorrentРипы_от_wolf1245_MediaBitClouds (2020) WEB-DLRip-AVC from wolf1245 & MediaBit.mkv
Format : Matroska
Format version : Version 4
File size : 1.45 GiB
Duration : 2 h 0 min
Overall bit rate : 1 716 kb/s
Movie name : Clouds (2020) WEB-DLRip-AVC from wolf1245 & MediaBit
Encoded date : UTC 2020-11-21 20:25:15
Writing application : mkvmerge v51.0.0 ('I Wish') 64-bit
Writing library : libebml v1.4.0 + libmatroska v1.6.2
Video
ID : 1
Format : AVC
Format/Info : Advanced Video Codec
Format profile : High@L4.1
Format settings : CABAC / 12 Ref Frames
Format settings, CABAC : Yes
Format settings, Reference frames : 12 frames
Codec ID : V_MPEG4/ISO/AVC
Duration : 2 h 0 min
Bit rate : 1 525 kb/s
Width : 1 024 pixels
Height : 428 pixels
Display aspect ratio : 2.40:1
Frame rate mode : Constant
Frame rate : 23.976 (24000/1001) FPS
Color space : YUV
Chroma subsampling : 4:2:0
Bit depth : 8 bits
Scan type : Progressive
Bits/(Pixel*Frame) : 0.145
Stream size : 1.29 GiB (89%)
Title : wolf1245 & MediaBit
Writing library : x264 core 157 r2958 57baac4
Encoding settings : cabac=1 / ref=12 / deblock=1:-3:-3 / analyse=0x3:0x133 / me=umh / subme=11 / psy=1 / psy_rd=1.03:0.03 / mixed_ref=1 / me_range=48 / chroma_me=1 / trellis=2 / 8x8dct=1 / cqm=0 / deadzone=21,11 / fast_pskip=0 / chroma_qp_offset=-3 / threads=10 / lookahead_threads=2 / sliced_threads=0 / nr=0 / decimate=0 / interlaced=0 / bluray_compat=0 / constrained_intra=0 / bframes=12 / b_pyramid=2 / b_adapt=2 / b_bias=0 / direct=3 / weightb=1 / open_gop=0 / weightp=2 / keyint=240 / keyint_min=24 / scenecut=40 / intra_refresh=0 / rc_lookahead=100 / rc=2pass / mbtree=0 / bitrate=1525 / ratetol=1.0 / qcomp=0.60 / qpmin=0 / qpmax=69 / qpstep=4 / cplxblur=20.0 / qblur=0.5 / vbv_maxrate=50000 / vbv_bufsize=62500 / nal_hrd=none / filler=0 / ip_ratio=1.40 / pb_ratio=1.30 / aq=2:0.80
Language : English
Default : Yes
Forced : No
Color range : Limited
Color primaries : BT.709
Transfer characteristics : BT.709
Matrix coefficients : BT.709
Audio
ID : 2
Format : AC-3
Format/Info : Audio Coding 3
Commercial name : Dolby Digital
Codec ID : A_AC3
Duration : 2 h 0 min
Bit rate mode : Constant
Bit rate : 192 kb/s
Channel(s) : 2 channels
Channel layout : L R
Sampling rate : 48.0 kHz
Frame rate : 31.250 FPS (1536 SPF)
Compression mode : Lossy
Stream size : 166 MiB (11%)
Title : MVO | MUZOBOZ
Language : Russian
Service kind : Complete Main
Default : Yes
Forced : No
Text
ID : 3
Format : UTF-8
Codec ID : S_TEXT/UTF8
Codec ID/Info : UTF-8 Plain Text
Duration : 1 h 58 min
Bit rate : 67 b/s
Count of elements : 1684
Stream size : 58.3 KiB (0%)
Title : English
Language : English
Default : No
Forced : No
Релиз от: & &
pb.wtf



Скачать Облака через торрент https://b.radikal.ru/b20/2011/94/ca25b2b5f26e.png Скачать фильм Облака через торрент бесплантно в хорошем качестве Описание: 17-летнему парню диагностируют редкий рак костей. За несколько месяцев до смерти он влюбляется в девушку Эми и, несмотря на ... 10 10 1
Торрент: Зарегистрирован [2020-11-21 20:38] · скачан: 34 раз
Статус: T временная
Размер: 1.45 GB
Как cкачать? Как скачать Облака через торрент | qTorrent

28-11-2019 20:33  

Отключить всю рекламу на сайте

    Дорогой пользователь! Огромная просьба, поблагодарите релизера, оцените раздачу и оставьте свои комментарий, если Вы скачали Облака через торрент бесплатно! Внесите свою лепту в развитие PiratBit!
    Комментировать посты могут только пользователи прошедшие не сложную регистрацию
    Показать сообщения:    

    Облака через торрент
    Скачать бесплатно Облака
    Облака скачать торрент
    Облака смотреть онлайн
    Cкачать фильм Облака бесплатно
    Облака скачать торрент в хорошем качестве
    Облака смотреть онлайн бесплатно в хорошем качестве


    Вы не можете начинать темы
    Вы не можете отвечать на сообщения
    Вы не можете редактировать свои сообщения
    Вы не можете удалять свои сообщения
    Вы не можете голосовать в опросах
    Вы не можете прикреплять файлы к сообщениям
    Вы можете скачивать файлы