Ссылка на приватное зеркало нашего сайта всего за 1$. Внимание количество ограничено!!!

2 сезон

iTunes

1 сезон

1

2 сезон

2 сезон

iTunes

1 сезон

RePack

30

Ultimate

ВАЖНО

ИГРА 18+

pack

RePack

MK11
pack

Забери бонус

RePack

jed

!!Акция!!

Alien_Rage

RePack

fifa19

RePack

Assassins Creed: Odyssey

RePack

NEED FOR SPEED™ PAYBACK

4 сезон

9 сезон

Бесстыжие 9 сезон

Все сериалы

все сериалы на PB.wtf

RePack

FAR CRY 5
  

Лучшие годы / Gli anni più belli / The Best Years (Габриэле Муччино) [2020, Драма, BDRip 720p] DUB [iTunes] pb.wtf

Лучшие годы через торрент pb.wtf

Раздают: 2 [ 0 KB/s ]
Размер: 6.58 GB | Добавлен: 8 д. назад | Торрент скачан:11 раз
Скачать  

21-11-2020 21:22 Лучшие годы Скачать торрент  

Лучшие годы | Gli anni più belli | The Best Years
Год выпуска: 2020
Страна: Италия
Студия: Lotus Production, Rai Cinema, 3 Marys Entertainment
Жанр: Драма
Продолжительность: 02:14:20
Перевод: Дублированный | iTunes
Субтитры: Итальянские

Режиссер: Габриэле Муччино

rating

В ролях: Пьерфранческо Фавино, Микаэла Рамаццотти, Ким Росси Стюарт, Клаудио Сантамария, Николетта Романофф, Эмма Марроне, Альма Ноче, Франческо Чентораме, Андреа Питторино, Маттео Де Буоно

Описание: История трёх друзей, Паоло, Риккардо, Джулио, и девушки Паоло, Джеммы, рассказанная в течение сорока лет, с 1980 года до наших дней. Паоло получает степень в области литературы и начинает преподавать. Джулио становится успешным адвокатом и меняет свои идеалистические взгляда на богатство и славу. Риккардо меняет профессии в поисках себя – от актёра до журналиста. Джемма уезжает в Неаполь, чтобы в итоге вернуться обратно в Рим к Паоло. Но вскоре Джемма начинает роман с Джулио...

Качество: BDRip 720p
Формат: MKV

Видео: MPEG-4 AVC, 1280x536, 6000 Кbit/s, 24.000 fps
Аудио#1: 48 kHz, AC3, 5.1, 384 Kbps | iTunes | RUS |
Аудио#2: 48 kHz, AC3, 5.1, 640 Kbps | Оригинал | ITA |
скриншот  скриншот  скриншот  скриншот  скриншот  

General
Unique ID : 218099726343482888894573778930389977589 (0xA4147AB8D411E1FEFEC74E77F1B789F5)
Complete name : D:Video111Gli.anni.piu.belli.2020.BDRip.720p.seleZen.mkv
Format : Matroska
Format version : Version 4
File size : 6.58 GiB
Duration : 2 h 14 min
Overall bit rate : 7 016 kb/s
Movie name : Gli anni più belli 2020 from seleZen
Encoded date : UTC 2020-11-21 21:01:58
Writing application : mkvmerge v40.0.0 ('Old Town Road + Pony') 64-bit
Writing library : libebml v1.3.9 + libmatroska v1.5.2

Video
ID : 1
Format : AVC
Format/Info : Advanced Video Codec
Format profile : High@L4.1
Format settings : CABAC / 12 Ref Frames
Format settings, CABAC : Yes
Format settings, Reference : 12 frames
Codec ID : V_MPEG4/ISO/AVC
Duration : 2 h 14 min
Bit rate : 6 000 kb/s
Width : 1 280 pixels
Height : 536 pixels
Display aspect ratio : 2.40:1
Frame rate mode : Constant
Frame rate : 24.000 FPS
Color space : YUV
Chroma subsampling : 4:2:0
Bit depth : 8 bits
Scan type : Progressive
Bits/(Pixel*Frame) : 0.364
Stream size : 5.62 GiB (85%)
Writing library : x264 core 157 r2935 545de2f
Encoding settings : cabac=1 / ref=12 / deblock=1:-2:-2 / analyse=0x3:0x133 / me=umh / subme=10 / psy=1 / psy_rd=1.00:0.00 / mixed_ref=1 / me_range=32 / chroma_me=1 / trellis=2 / 8x8dct=1 / cqm=0 / deadzone=21,11 / fast_pskip=0 / chroma_qp_offset=-2 / threads=17 / lookahead_threads=2 / sliced_threads=0 / nr=0 / decimate=0 / interlaced=0 / bluray_compat=0 / constrained_intra=0 / bframes=8 / b_pyramid=2 / b_adapt=2 / b_bias=0 / direct=1 / weightb=1 / open_gop=0 / weightp=1 / keyint=240 / keyint_min=24 / scenecut=40 / intra_refresh=0 / rc_lookahead=40 / rc=2pass / mbtree=0 / bitrate=6000 / ratetol=1.0 / qcomp=0.60 / qpmin=0 / qpmax=51 / qpstep=4 / cplxblur=20.0 / qblur=0.5 / vbv_maxrate=50000 / vbv_bufsize=62500 / nal_hrd=none / filler=0 / ip_ratio=1.40 / pb_ratio=1.30 / aq=1:1.00
Language : Italian
Default : Yes
Forced : No
Color range : Limited
Color primaries : BT.709
Transfer characteristics : BT.709
Matrix coefficients : BT.709

Audio #1
ID : 2
Format : AC-3
Format/Info : Audio Coding 3
Commercial name : Dolby Digital
Codec ID : A_AC3
Duration : 2 h 14 min
Bit rate mode : Constant
Bit rate : 384 kb/s
Channel(s) : 6 channels
Channel layout : L R C LFE Ls Rs
Sampling rate : 48.0 kHz
Frame rate : 31.250 FPS (1536 SPF)
Compression mode : Lossy
Stream size : 369 MiB (5%)
Title : iTunes
Language : Russian
Service kind : Complete Main
Default : Yes
Forced : Yes

Audio #2
ID : 3
Format : AC-3
Format/Info : Audio Coding 3
Commercial name : Dolby Digital
Codec ID : A_AC3
Duration : 2 h 14 min
Bit rate mode : Constant
Bit rate : 640 kb/s
Channel(s) : 6 channels
Channel layout : L R C LFE Ls Rs
Sampling rate : 48.0 kHz
Frame rate : 31.250 FPS (1536 SPF)
Compression mode : Lossy
Stream size : 615 MiB (9%)
Title : Original
Language : Italian
Service kind : Complete Main
Default : No
Forced : No

Text
ID : 4
Format : UTF-8
Codec ID : S_TEXT/UTF8
Codec ID/Info : UTF-8 Plain Text
Duration : 2 h 8 min
Bit rate : 65 b/s
Count of elements : 1864
Stream size : 61.2 KiB (0%)
Title : SDH
Language : Italian
Default : No
Forced : No

Menu
00:00:00.000 : it:Глава 01
00:10:34.458 : it:Глава 02
00:21:15.292 : it:Глава 03
00:33:22.958 : it:Глава 04
00:44:13.250 : it:Глава 05
00:56:30.958 : it:Глава 06
01:09:18.333 : it:Глава 07
01:19:48.208 : it:Глава 08
01:30:21.458 : it:Глава 09
01:42:52.667 : it:Глава 10
01:52:32.167 : it:Глава 11
02:04:28.375 : it:Глава 12

pb.wtf



Скачать Лучшие годы через торрент https://i114.fastpic.ru/big/2020/1121/7b/c4d98557212c29cd91d70c3ef1cfab7b.jpg Скачать фильм Лучшие годы через торрент бесплантно в хорошем качестве Описание: История трёх друзей, Паоло, Риккардо, Джулио, и девушки Паоло, Джеммы, рассказанная в течение сорока лет, с 1980 года до наших ... 10 10 2
Торрент: Зарегистрирован [2020-11-21 21:22] · скачан: 11 раз
Статус: √ проверено
Размер: 6.58 GB
Как cкачать? Как скачать Лучшие годы через торрент | qTorrent

% Раздел Тема Автор DL S | L
Фильмы 2019-2020 [DVDrip, WEB-DLRip, HDrip] (DUB, MVO) [ 1.45 GB ] Лучшие годы / Gli anni più belli / The Best Years [2020 HDRip-AVC ] [ ] Lithuania Скачать
1 | 0
Фильмы 2019-2020 [DVDrip, WEB-DLRip, HDrip] (DUB, MVO) [ 2.12 GB ] Лучшие годы / Gli anni più belli / The Best Years [2020 BDRip] bober100 Скачать
1 | 0
Фильмы 2019-2020 [DVDrip, WEB-DLRip, HDrip] (DUB, MVO) [ 1.46 GB ] Лучшие годы / Gli anni più belli / The Best Years [2020 BDRip] bober100 Скачать
1 | 0
Фильмы [HD 720p, 1080p] (Хороший звук DUB, MVO) [ 12.69 GB ] Лучшие годы / Gli anni più belli / The Best Years [2020 BDRip 1080p] bober100 Скачать
3 | 0
Фильмы (Blu-ray, BD-Remux, HDDVD) [ 32.39 GB ] Лучшие годы / Gli anni più belli / The Best Years [2020 BD Remux 1080p] bober100 Скачать
1 | 0

28-11-2019 20:33  

Отключить всю рекламу на сайте

    Дорогой пользователь! Огромная просьба, поблагодарите релизера, оцените раздачу и оставьте свои комментарий, если Вы скачали Лучшие годы через торрент бесплатно! Внесите свою лепту в развитие PiratBit!
    Комментировать посты могут только пользователи прошедшие не сложную регистрацию
    Показать сообщения:    

    Лучшие годы через торрент
    Скачать бесплатно Лучшие годы
    Лучшие годы скачать торрент
    Лучшие годы смотреть онлайн
    Cкачать фильм Лучшие годы бесплатно
    Лучшие годы скачать торрент в хорошем качестве
    Лучшие годы смотреть онлайн бесплатно в хорошем качестве


    Вы не можете начинать темы
    Вы не можете отвечать на сообщения
    Вы не можете редактировать свои сообщения
    Вы не можете удалять свои сообщения
    Вы не можете голосовать в опросах
    Вы не можете прикреплять файлы к сообщениям
    Вы можете скачивать файлы