Ссылка на приватное зеркало нашего сайта всего за 1$. Внимание количество ограничено!!!

2 сезон

iTunes

1 сезон

1

2 сезон

2 сезон

iTunes

1 сезон

RePack

30

Новинка

ВАЖНО

ИГРА 18+

pack

RePack

MK11
pack

Забери бонус

RePack

jed

!!Акция!!

Alien_Rage

RePack

fifa19

RePack

Assassins Creed: Odyssey

RePack

NEED FOR SPEED™ PAYBACK

4 сезон

9 сезон

Бесстыжие 9 сезон

Все сериалы

все сериалы на PB.wtf

RePack

FAR CRY 5
  

Кошкин дом / Серии: 1-4 из 4 (Алексей Карелин) [2020, Детектив, мелодрама, WEB-DLRip] pb.wtf

Кошкин дом через торрент pb.wtf

Размер: 2.43 GB | Добавлен: 7 д. назад | Торрент скачан:8 раз
Скачать  

22-11-2020 01:48 Кошкин дом Скачать торрент  

Кошкин дом
Год выпуска: 2020
Страна: Россия
Студия: Кинокомпания "Приор Продакшн"
Жанр: Детектив, мелодрама
Продолжительность: ~ 00:50:00
Субтитры: отсутствуют

Режиссер: Алексей Карелин

В ролях: Ольга Филиппова, Дмитрий Лавров (III), Арсений Фогелев, Денис Синявский, Алексей Вакулов, Майя Вознесенская, Александра Каштанова, Андрей Карако, Иван Чиров, Екатерина Бушина

Описание: Надежда Кошкина руководит частным Кризисным Центром помощи женщинам, прозванным в народе «Кошкиным  Домом». Никто не знает, что в юности Надежда оставила свою дочь в доме малютки, чтобы спасти ее от родного отца – тирана Юдина, не раз поднимавшего на Кошкину руку. Страдая от потери дочери и ведя ее безуспешные поиски, Кошкина посвящает свою жизнь женщинам, оказавшимся в безвыходной ситуации. Среди ее подопечных оказывается Наталья Большова – известная телеведущая женского ток-шоу, которая по иронии судьбы сама стала жертвой домашнего насилия. В муже-мучителе Большовой Кошкина неожиданно узнает… Юдина. Понимая, что Кошкина знает о нем слишком много, он решает уничтожить и ее, и «Кошкин Дом». 

Качество: WEB-DLRip-AVC
Формат: AVI

Видео: 1530 Кбит/сек, 720*400 (16:9), в 25,000 кадров/сек, MPEG-4 Visual (XviD)
Аудио: 192 Кбит/сек, 48,0 КГц, 16 бит, 2 канала, AC-3

Общее
Полное имя : G:\Кошкин Дом.2020.WEB-DLRip.Files-x\02. Кошкин Дом.2020.WEB-DLRip.Files-x.avi
Формат : AVI
Формат/Информация : Audio Video Interleave
Размер файла : 630 Мбайт
Продолжительность : 48 м. 49 с.
Общий поток : 1803 Кбит/сек
Программа кодирования : VirtualDubMod 1.5.10.3 | www.virtualdub-fr.org || (build 2550/release)
Библиотека кодирования : VirtualDubMod build 2550/release

Видео
Идентификатор : 0
Формат : MPEG-4 Visual
Профиль формата : Advanced Simple@L5
Настройки формата : BVOP1 / Custom Matrix
Параметр BVOP формата : 1
Параметр QPel формата : Нет
Параметр GMC формата : Без точки перехода
Параметр матрицы формата : Выборочная
Идентификатор кодека : XVID
Идентификатор кодека/Подсказка : XviD
Продолжительность : 48 м. 49 с.
Битрейт : 1530 Кбит/сек
Ширина : 720 пикселей
Высота : 400 пикселей
Соотношение сторон : 16:9
Частота кадров : 25,000 кадров/сек
Цветовое пространство : YUV
Субдискретизация насыщенности : 4:2:0
Битовая глубина : 8 бит
Тип развёртки : Прогрессивная
Метод сжатия : С потерями
Бит/(Пиксели*Кадры) : 0.213
Размер потока : 535 Мбайт (85%)
Библиотека кодирования : XviD 73

Аудио
Идентификатор : 1
Формат : AC-3
Формат/Информация : Audio Coding 3
Коммерческое название : Dolby Digital
Идентификатор кодека : 2000
Продолжительность : 48 м. 49 с.
Вид битрейта : Постоянный
Битрейт : 192 Кбит/сек
Каналы : 2 канала
ChannelLayout : L R
Частота : 48,0 КГц
Частота кадров : 31,250 кадров/сек (1536 SPF)
Битовая глубина : 16 бит
Метод сжатия : С потерями
Размер потока : 67,1 Мбайт (11%)
Выравнивание : Разделение по промежуткам
ServiceKind/String : Complete Main

Скриншоты
скриншот   скриншот   скриншот   скриншот   скриншот   скриншот   скриншот  
скриншот  
pb.wtf



Скачать Кошкин дом через торрент https://i114.fastpic.ru/big/2020/1121/11/8b7ca1d6e6d881434123663991002711.jpg Скачать фильм Кошкин дом через торрент бесплантно в хорошем качестве Описание: Надежда Кошкина руководит частным Кризисным Центром помощи женщинам, прозванным в народе «Кошкиным  Домом». Никто не знает, что в ... 5 10 1
Торрент: Зарегистрирован [2020-11-22 22:19] · скачан: 8 раз
Статус: √ проверено
Размер: 2.43 GB
Как cкачать? Как скачать Кошкин дом через торрент | qTorrent

% Раздел Тема Автор DL S | L
Наши сериалы [ 7.72 GB ] Кошкин дом / Серии: 1-4 из 4 [2020 HDTV 1080i] bober100 Скачать
1 | 0
Наши сериалы [ 2.42 GB ] Кошкин дом / Серии: 1-4 из 4 [2020 WEB-DLRip-AVC] bober100 Скачать
1 | 0

28-11-2019 20:33  

Отключить всю рекламу на сайте

    Дорогой пользователь! Огромная просьба, поблагодарите релизера, оцените раздачу и оставьте свои комментарий, если Вы скачали Кошкин дом через торрент бесплатно! Внесите свою лепту в развитие PiratBit!
    Комментировать посты могут только пользователи прошедшие не сложную регистрацию
    Показать сообщения:    

    Кошкин дом через торрент
    Скачать бесплатно Кошкин дом
    Кошкин дом скачать торрент
    Кошкин дом смотреть онлайн
    Cкачать фильм Кошкин дом бесплатно
    Кошкин дом скачать торрент в хорошем качестве
    Кошкин дом смотреть онлайн бесплатно в хорошем качестве


    Вы не можете начинать темы
    Вы не можете отвечать на сообщения
    Вы не можете редактировать свои сообщения
    Вы не можете удалять свои сообщения
    Вы не можете голосовать в опросах
    Вы не можете прикреплять файлы к сообщениям
    Вы можете скачивать файлы