Всегда рабочее зеркало без VPN и Proxy просто перед .vidak.icu напиши любое слово или цифру, Пример http://mb8a.vidak.icu

Лицензия

MVO

1 сезон

1

1 сезон

iTunes

1 сезон

13

1 сезон

Deluxe

pack

Рекомендуем

Repack

30

ВАЖНО

RePack

MK11

RePack

jed

RePack

fifa19

RePack

RDR2

RePack

NEED FOR SPEED™ PAYBACK

Кинопоиск HD

6 сезон

 Острые козырьки 6 сезон

Все сериалы

все сериалы на PB.wtf

RePack

FAR CRY 5
  
Magnet ссылка

Безумный Макс / Mad Max (Джордж Миллер) [1979, Боевик, приключения, фантастика, UHD BDRemux 2160p] 2xDUB [Лицензия] +4xMVO+2xAVO pb.wtf

Безумный Макс через торрент pb.wtf

Размер: 57.07 GB | Добавлен: 1 год 8 мес. назад | Торрент скачан:13 раз
Смотреть онлайн Безумный Макс | Скачать    Ребята, помогите собрать деньги на оплату серверов!!!

22-11-2020 07:53 Безумный Макс Скачать торрент  

Безумный Макс | Mad Max
Год выпуска: 1979
Страна: Австралия
Жанр: Боевик, приключения, фантастика
Продолжительность: 01:33:15
Перевод(ы):
#1: Дублированный | Blu-ray
#2: Дублированный
#3: Профессиональный многоголосый | Киномания
#4: Профессиональный многоголосый
#5: Профессиональный многоголосый | НТВ+
#6: Профессиональный многоголосый | Варус Видео
#7: Авторский | А. Михалёв
#8: Авторский | Л. Володарский
Субтитры: Русские (full), английские

Режиссер: Джордж Миллер

rating

В ролях:

Мэл Гибсон (Max), Джоэнн Сэмюэл (Jessie), Хью Кияс-Бёрн (Toecutter), Стив Бисли (Jim Goose), Тим Барнс (Johnny the Boy), Роджер Уорд (Fifi), Лиза Альденховен (Nurse), Дэвид Брэкс (Mudguts), Бертран Кадар (Clunk), Дэвид Камерон (Underground Mechanic), Робина Чеффи (Singer), Стивен Кларк (Sarse)
Описание: В недалёком будущем, после крупной катастрофы, поразившей нашу урбанистическую цивилизацию, вся жизнь сосредоточилась вдоль бесчисленных магистралей… Дорога стала способом существования. И дала многим возможность проявлять свои самые жестокие инстинкты. Банда байкеров на мощных мотоциклах, желая рассчитаться за своего убитого товарища, преследует молодого полицейского Макса. В яростной схватке убит другой полицейский, Гус, подобная участь может ждать Макса и его семью. Ему предстоит самая главная и сложная задача — сохранить жену, сына и выжить самому. В роли Макса — Мел Гибсон, тогда ещё мало известный широкой публике.

Качество: UHD BDRemux 2160p
Формат: MKV

Видео: 3840x2160 at 23.976 fps, MPEG-H HEVC HDR Video, 79500 kbps avg
Аудио #01: 48 kHz, AC3, 1.0, 192 Kbps | Дублированный | Blu-ray | RUS |
Аудио #02: 48 kHz, AC3, 5.1, 448 Kbps | Дублированный | RUS |
Аудио #03: 48 kHz, AC3, 5.1, 448 Kbps | Профессиональный многоголосый | Киномания | RUS |
Аудио #04: 48 kHz, DTS, 5.1, 775 Kbps | Профессиональный многоголосый | RUS |
Аудио #05: 48 kHz, AC3, 2.0, 192 Kbps | Профессиональный многоголосый | НТВ+ | RUS |
Аудио #06: 48 kHz, AC3, 2.0, 192 Kbps | Профессиональный многоголосый | Варус Видео | RUS |
Аудио #07: 48 kHz, DTS, 5.1, 1510 Kbps | Авторский | А. Михалёв | RUS |
Аудио #08: 48 kHz, AC3, 5.1, 448 Kbps | Авторский | Л. Володарский | RUS |
Аудио #09: 48 kHz, DTS-HD MA, 5.1, 4000 Kbps | Оригинал | ENG |
скриншот  скриншот  скриншот  скриншот  скриншот  

General
Unique ID : 26445572193394021429332443629914067518 (0x13E53B605026FB78433F9310CC92923E)
Complete name : D:Video111Mad.Max.1979.BDREMUX.2160p.HDR.seleZen.mkv
Format : Matroska
Format version : Version 4
File size : 57.1 GiB
Duration : 1 h 33 min
Overall bit rate mode : Variable
Overall bit rate : 87.6 Mb/s
Movie name : Mad Max 1979 4K UHD From seleZen
Encoded date : UTC 2020-11-21 12:40:42
Writing application : mkvmerge v40.0.0 ('Old Town Road + Pony') 64-bit
Writing library : libebml v1.3.9 + libmatroska v1.5.2

Video
ID : 1
Format : HEVC
Format/Info : High Efficiency Video Coding
Format profile : Main [email protected]@High
HDR format : SMPTE ST 2086, HDR10 compatible
Codec ID : V_MPEGH/ISO/HEVC
Duration : 1 h 33 min
Bit rate : 79.5 Mb/s
Width : 3 840 pixels
Height : 2 160 pixels
Display aspect ratio : 16:9
Frame rate mode : Constant
Frame rate : 23.976 (24000/1001) FPS
Color space : YUV
Chroma subsampling : 4:2:0 (Type 2)
Bit depth : 10 bits
Bits/(Pixel*Frame) : 0.400
Stream size : 51.7 GiB (91%)
Language : English
Default : Yes
Forced : No
Color range : Limited
Color primaries : BT.2020
Transfer characteristics : PQ
Matrix coefficients : BT.2020 non-constant
Mastering display color pri : Display P3
Mastering display luminance : min: 0.0001 cd/m2, max: 1000 cd/m2

Audio #1
ID : 2
Format : AC-3
Format/Info : Audio Coding 3
Commercial name : Dolby Digital
Codec ID : A_AC3
Duration : 1 h 33 min
Bit rate mode : Constant
Bit rate : 192 kb/s
Channel(s) : 1 channel
Channel layout : C
Sampling rate : 48.0 kHz
Frame rate : 31.250 FPS (1536 SPF)
Compression mode : Lossy
Stream size : 128 MiB (0%)
Title : Dub [Blu-Ray]
Language : Russian
Service kind : Complete Main
Default : Yes
Forced : Yes

Audio #2
ID : 3
Format : AC-3
Format/Info : Audio Coding 3
Commercial name : Dolby Digital
Codec ID : A_AC3
Duration : 1 h 33 min
Bit rate mode : Constant
Bit rate : 448 kb/s
Channel(s) : 6 channels
Channel layout : L R C LFE Ls Rs
Sampling rate : 48.0 kHz
Frame rate : 31.250 FPS (1536 SPF)
Compression mode : Lossy
Stream size : 299 MiB (1%)
Title : Dub
Language : Russian
Service kind : Complete Main
Default : No
Forced : No

Audio #3
ID : 4
Format : AC-3
Format/Info : Audio Coding 3
Commercial name : Dolby Digital
Codec ID : A_AC3
Duration : 1 h 33 min
Bit rate mode : Constant
Bit rate : 448 kb/s
Channel(s) : 6 channels
Channel layout : L R C LFE Ls Rs
Sampling rate : 48.0 kHz
Frame rate : 31.250 FPS (1536 SPF)
Compression mode : Lossy
Stream size : 299 MiB (1%)
Title : MVO [Киномания]
Language : Russian
Service kind : Complete Main
Default : No
Forced : No

Audio #4
ID : 5
Format : DTS
Format/Info : Digital Theater Systems
Codec ID : A_DTS
Duration : 1 h 33 min
Bit rate mode : Constant
Bit rate : 755 kb/s
Channel(s) : 6 channels
Channel layout : C L R Ls Rs LFE
Sampling rate : 48.0 kHz
Frame rate : 93.750 FPS (512 SPF)
Bit depth : 24 bits
Compression mode : Lossy
Stream size : 503 MiB (1%)
Title : MVO
Language : Russian
Default : No
Forced : No

Audio #5
ID : 6
Format : AC-3
Format/Info : Audio Coding 3
Commercial name : Dolby Digital
Codec ID : A_AC3
Duration : 1 h 33 min
Bit rate mode : Constant
Bit rate : 192 kb/s
Channel(s) : 2 channels
Channel layout : L R
Sampling rate : 48.0 kHz
Frame rate : 31.250 FPS (1536 SPF)
Compression mode : Lossy
Stream size : 128 MiB (0%)
Title : MVO [НТВ+]
Language : Russian
Service kind : Complete Main
Default : No
Forced : No

Audio #6
ID : 7
Format : AC-3
Format/Info : Audio Coding 3
Commercial name : Dolby Digital
Codec ID : A_AC3
Duration : 1 h 33 min
Bit rate mode : Constant
Bit rate : 192 kb/s
Channel(s) : 2 channels
Channel layout : L R
Sampling rate : 48.0 kHz
Frame rate : 31.250 FPS (1536 SPF)
Compression mode : Lossy
Stream size : 128 MiB (0%)
Title : MVO [Варус Видео]
Language : Russian
Service kind : Complete Main
Default : No
Forced : No

Audio #7
ID : 8
Format : DTS
Format/Info : Digital Theater Systems
Codec ID : A_DTS
Duration : 1 h 33 min
Bit rate mode : Constant
Bit rate : 1 510 kb/s
Channel(s) : 6 channels
Channel layout : C L R Ls Rs LFE
Sampling rate : 48.0 kHz
Frame rate : 93.750 FPS (512 SPF)
Bit depth : 24 bits
Compression mode : Lossy
Stream size : 1 007 MiB (2%)
Title : AVO [Михалёв]
Language : Russian
Default : No
Forced : No

Audio #8
ID : 9
Format : AC-3
Format/Info : Audio Coding 3
Commercial name : Dolby Digital
Codec ID : A_AC3
Duration : 1 h 33 min
Bit rate mode : Constant
Bit rate : 448 kb/s
Channel(s) : 6 channels
Channel layout : L R C LFE Ls Rs
Sampling rate : 48.0 kHz
Frame rate : 31.250 FPS (1536 SPF)
Compression mode : Lossy
Stream size : 299 MiB (1%)
Title : AVO [Володарский]
Language : Russian
Service kind : Complete Main
Default : No
Forced : No

Audio #9
ID : 10
Format : DTS XLL
Format/Info : Digital Theater Systems
Commercial name : DTS-HD Master Audio
Codec ID : A_DTS
Duration : 1 h 33 min
Bit rate mode : Variable
Bit rate : 4 000 kb/s
Channel(s) : 6 channels
Channel layout : C L R Ls Rs LFE
Sampling rate : 48.0 kHz
Frame rate : 93.750 FPS (512 SPF)
Bit depth : 24 bits
Compression mode : Lossless
Stream size : 2.60 GiB (5%)
Title : Original
Language : English
Default : No
Forced : No

Text #1
ID : 11
Format : UTF-8
Codec ID : S_TEXT/UTF8
Codec ID/Info : UTF-8 Plain Text
Duration : 1 h 32 min
Bit rate : 49 b/s
Count of elements : 684
Stream size : 33.3 KiB (0%)
Title : Full
Language : Russian
Default : No
Forced : No

Text #2
ID : 12
Format : UTF-8
Codec ID : S_TEXT/UTF8
Codec ID/Info : UTF-8 Plain Text
Duration : 1 h 31 min
Bit rate : 40 b/s
Count of elements : 856
Stream size : 27.0 KiB (0%)
Title : SDH
Language : English
Default : No
Forced : No

Menu
00:00:00.000 : en:Глава 01
00:07:00.337 : en:Глава 02
00:15:39.480 : en:Глава 03
00:23:36.832 : en:Глава 04
00:31:49.282 : en:Глава 05
00:39:00.213 : en:Глава 06
00:47:02.403 : en:Глава 07
00:55:43.549 : en:Глава 08
01:02:12.854 : en:Глава 09
01:15:32.611 : en:Глава 10
01:30:48.443 : en:Глава 11

pb.wtf



Скачать Безумный Макс через торрент https://a.radikal.ru/a13/2011/ba/9e73602c9b47.jpg Скачать, смотреть онлайн Безумный Макс бесплантно в хорошем качестве Описание: В недалёком будущем, после крупной катастрофы, поразившей нашу урбанистическую цивилизацию, вся жизнь сосредоточилась вдоль ... 10 10 2
Торрент: Зарегистрирован [2020-11-22 07:53] · скачан: 13 раз
Статус: √ проверено
Размер: 57.07 GB
Как cкачать? Как скачать Безумный Макс через торрент | UTorrent

% Раздел Тема Автор DL S | L
Ultra HD (UHD: 2K, 4K, 8K) — видео сверхвысокой чёткости [ 66.04 GB ] Безумный Макс / Mad Max [1979 UHD BDRemux 2160p ] 2xDUB [] +4xMVO+2xAVO bober100 Скачать
1 | 0
Ultra HD (UHD: 2K, 4K, 8K) — видео сверхвысокой чёткости [ 24.85 GB ] Безумный Макс / Mad Max [1979 UHD WEB-DL 2160p] [AMAZON Version] DUB+2xMVO+2xAVO bober100 Скачать
1 | 0
Ultra HD (UHD: 2K, 4K, 8K) — видео сверхвысокой чёткости [ 23.11 GB ] Безумный Макс / Mad Max [1979 UHD WEBRip 2160p] DUB + 2xAVO + DVO + 3xMVO sheker187 Скачать
1 | 0

28-11-2019 20:33  

Отключить вcю реклaмy на сайте

    Дорогой пользователь! Огромная просьба, поблагодарите релизера, оцените раздачу и оставьте свои комментарий, если Вы скачали Безумный Макс через торрент бесплатно!
    Комментировать посты могут только пользователи прошедшие не сложную регистрацию
    Показать сообщения:    

    Безумный Макс через торрент
    Скачать бесплатно Безумный Макс
    Безумный Макс скачать торрент
    Безумный Макс смотреть онлайн
    Cкачать фильм Безумный Макс бесплатно
    Безумный Макс скачать торрент в хорошем качестве
    Безумный Макс смотреть онлайн бесплатно в хорошем качестве


    Вы не можете начинать темы
    Вы не можете отвечать на сообщения
    Вы не можете редактировать свои сообщения
    Вы не можете удалять свои сообщения
    Вы не можете голосовать в опросах
    Вы не можете прикреплять файлы к сообщениям
    Вы можете скачивать файлы