Доктор Стрэндж

Лицензия

Добыча

Дубляж

Дом дракона

1 сезон

Тор

Дубляж

В эфире

Дубляж

Там, где раки поют

MVO

Властелин колец

1 сезон

GLOBAL

pack

Рекомендуем

30

Пиратка

ВАЖНО

ВАЖНО

Ghostwire

Пиратка

jed

RePack

nioh2

RePack

RDR2

RePack

NEED FOR SPEED™ PAYBACK

RePack

скачать торрент

Кинопоиск HD

Острые козырьки 6 сезон

6 сезон

FAR CRY 6

RePack

скачать торрент

Лицензия

скачать торрент

MVO

1

1 сезон

скачать торрент

1 сезон

скачать торрент

Лицензия

  

Космос / Cosmos (Эллиот Уивер, Зандер Уивер) [2019, Фантастика, BDRemux 1080p] Дубляж [iTunes] - ExKinoRay

Космос через торрент pb.wtf

Размер: 20.52 GB | Добавлен: 2 года назад | Торрент скачан:26 раз
Смотреть онлайн | Скачать   

23-11-2020 06:42 Космос Скачать торрент  

Космос / Cosmos
Год выпуска: 2019
Страна: Великобритания / Elliander Pictures
Жанр: Фантастика
Продолжительность: 02:08:51
Перевод: Дублированный | iTunes
Субтитры: Английские

Режиссер: Эллиот Уивер, Зандер Уивер

rating

В ролях: Том Инглэнд, Джошуа Форд, Бен Варди, Арджун Сингх Панам, Майк Колетта, Саймон Уортингтон, Марк Бейлис

Описание: Трое учёных случайно перехватывают закодированный сигнал далёкой инопланетной цивилизации. И этот сигнал – явно не простой сбой и не посторонние шумы. Что же это за космический звук, который они услышали? Истина оказывается более невероятной, чем любой из них мог предположить.

Качество: BD Remux
Формат: MKV
Видео кодек: H.264
Аудио кодек: AC3
Видео: MPEG-4 AVC, 18.7 Mбит/с, 1920x1080
Аудио#1: Русский (AC3, 6 ch, 384 Кбит/с) Дубляж (iTunes)
Аудио#2: Английский (DTS-HD MA, 6 ch, 3671 Кбит/с) Original

Релиз от: VK релиз-группы
Общее
Уникальный идентификатор : 227805767324314718622884681895962862107 (0xAB61CB7D3767252F8BD819FB37CDE21B)
Полное имя : D:РаздачаKosmos.2019.BD-Remux.1080p.ExKinoRay.mkv
Формат : Matroska
Версия формата : Version 4 / Version 2
Размер файла : 20,5 Гбайт
Продолжительность : 2 ч. 8 м.
Режим общего битрейта : Переменный
Общий поток : 22,8 Мбит/сек
Название фильма : Cosmos.2019.BD-Remux..1080p.grab777 & ExKinoRay
Дата кодирования : UTC 2020-11-23 01:39:51
Программа кодирования : mkvmerge v7.3.0 ('Nouages') 64bit built on Oct 22 2014 18:53:34
Библиотека кодирования : libebml v1.3.0 + libmatroska v1.4.1

Видео
Идентификатор : 1
Формат : AVC
Формат/Информация : Advanced Video Codec
Профиль формата : [email protected]
Настройки формата : CABAC / 4 Ref Frames
Параметр CABAC формата : Да
Параметр RefFrames формата : 4 кадра
Параметр GOP формата : M=3, N=23
Идентификатор кодека : V_MPEG4/ISO/AVC
Продолжительность : 2 ч. 8 м.
Вид битрейта : Переменный
Битрейт : 18,7 Мбит/сек
Максимальный битрейт : 32,0 Мбит/сек
Ширина : 1920 пикселей
Высота : 1080 пикселей
Соотношение сторон : 16:9
Режим частоты кадров : Постоянный
Частота кадров : 23,976 (24000/1001) кадра/сек
Цветовое пространство : YUV
Субдискретизация насыщенности : 4:2:0
Битовая глубина : 8 бит
Тип развёртки : Прогрессивная
Бит/(Пиксели*Кадры) : 0.377
Размер потока : 16,9 Гбайт (82%)
Заголовок : by gerab777
Язык : English
Default : Да
Forced : Нет
Цветовой диапазон : Limited
Основные цвета : BT.709
Характеристики трансфера : BT.709
Коэффициенты матрицы : BT.709

Аудио #1
Идентификатор : 2
Формат : AC-3
Формат/Информация : Audio Coding 3
Параметр Endianness формата : Big
Идентификатор кодека : A_AC3
Продолжительность : 2 ч. 8 м.
Вид битрейта : Постоянный
Битрейт : 384 Кбит/сек
Каналы : 6 каналов
Расположение каналов : Front: L C R, Side: L R, LFE
Частота : 48,0 КГц
Частота кадров : 31,250 кадров/сек (1536 SPF)
Битовая глубина : 16 бит
Метод сжатия : С потерями
Размер потока : 354 Мбайт (2%)
Заголовок : Дубляж (iTunes)
Язык : Russian
Default : Да
Forced : Нет

Аудио #2
Идентификатор : 3
Формат : DTS
Формат/Информация : Digital Theater Systems
Профиль формата : MA / Core
Режим : 16
Параметр Endianness формата : Big
Идентификатор кодека : A_DTS
Продолжительность : 2 ч. 8 м.
Вид битрейта : Переменный / Постоянный
Битрейт : 3671 Кбит/сек / 1509 Кбит/сек
Каналы : 6 каналов
Расположение каналов : Front: L C R, Side: L R, LFE
Частота : 48,0 КГц
Частота кадров : 93,750 кадра/сек (512 SPF)
Битовая глубина : 24 бит
Метод сжатия : Без потерь / Lossy
Размер потока : 3,30 Гбайт (16%)
Заголовок : Original
Язык : English
Default : Нет
Forced : Нет

Текст #1
Идентификатор : 4
Формат : UTF-8
Идентификатор кодека : S_TEXT/UTF8
Идентификатор кодека/Информация : UTF-8 Plain Text
Продолжительность : 2 ч. 3 м.
Битрейт : 52 бит/сек
ElementCount : 1529
Размер потока : 47,6 Кбайт (0%)
Язык : English
Default : Нет
Forced : Нет

Текст #2
Идентификатор : 5
Формат : UTF-8
Идентификатор кодека : S_TEXT/UTF8
Идентификатор кодека/Информация : UTF-8 Plain Text
Продолжительность : 2 ч. 8 м.
Битрейт : 55 бит/сек
ElementCount : 1748
Размер потока : 52,2 Кбайт (0%)
Язык : English
Default : Нет
Forced : Нет

Текст #3
Идентификатор : 6
Формат : UTF-8
Идентификатор кодека : S_TEXT/UTF8
Идентификатор кодека/Информация : UTF-8 Plain Text
Продолжительность : 2 ч. 3 м.
Битрейт : 52 бит/сек
ElementCount : 1521
Размер потока : 47,2 Кбайт (0%)
Язык : English
Default : Нет
Forced : Нет

Текст #4
Идентификатор : 7
Формат : PGS
Режим смешивания : zlib
Идентификатор кодека : S_HDMV/PGS
Идентификатор кодека/Информация : Picture based subtitle format used on BDs/HD-DVDs
Продолжительность : 2 ч. 8 м.
Битрейт : 14,1 Кбит/сек
ElementCount : 3496
Размер потока : 12,9 Мбайт (0%)
Язык : English
Default : Нет
Forced : Нет

Меню
00:00:00.000 : en:Chapter 01
00:09:04.043 : en:Chapter 02
00:18:27.189 : en:Chapter 03
00:29:29.684 : en:Chapter 04
00:38:26.762 : en:Chapter 05
00:50:16.930 : en:Chapter 06
01:03:48.741 : en:Chapter 07
01:13:14.598 : en:Chapter 08
01:19:01.319 : en:Chapter 09
01:28:29.012 : en:Chapter 10
01:36:48.385 : en:Chapter 11
01:44:53.495 : en:Chapter 12
01:51:35.647 : en:Chapter 13
02:00:25.301 : en:Chapter 14
02:07:17.254 : en:Chapter 15




Скачать Космос через торрент https://a.radikal.ru/a24/2011/72/8802343710ad.jpg Скачать, смотреть онлайн Космос бесплантно в хорошем качестве Описание: Трое учёных случайно перехватывают закодированный сигнал далёкой инопланетной цивилизации. И этот сигнал – явно не простой сбой и ... 10 10 2
Торрент: Зарегистрирован [2020-11-23 06:42] · скачан: 26 раз
Статус: √ проверено
Размер: 20.52 GB
Как cкачать? Как скачать Космос через торрент | UTorrent

28-11-2019 20:33  


Отключить вcю реклaмy на сайте, в т.ч. и в плеере онлайн просмотра!

    Дорогой пользователь! Огромная просьба, поблагодарите релизера, оцените раздачу и оставьте свои комментарий, если Вы скачали Космос через торрент бесплатно!!
    Комментировать посты могут только пользователи прошедшие не сложную регистрацию
    Показать сообщения:    


    Космос через торрент
    Скачать бесплатно Космос
    Космос скачать торрент
    Космос смотреть онлайн
    Cкачать фильм Космос бесплатно
    Космос скачать торрент в хорошем качестве
    Космос смотреть онлайн бесплатно в хорошем качестве
    Вы не можете начинать темы
    Вы не можете отвечать на сообщения
    Вы не можете редактировать свои сообщения
    Вы не можете удалять свои сообщения
    Вы не можете голосовать в опросах
    Вы не можете прикреплять файлы к сообщениям
    Вы можете скачивать файлы
    Космос / Cosmos [2019, Фантастика, BDRemux 1080p] Дубляж [iTunes] - ExKinoRay смотреть онлайн, скачать торрент picoco.icu