1 сезон

1 сезон

iTunes

1

КиноПоиск HD

Кинопоиск HD

iTunes

13

1 сезон

RePack

30

Ultimate

ВАЖНО

ИГРА 18+

pack

RePack

MK11
pack

Легкие деньги

RePack

jed

RePack

fifa19

RePack

RDR2

RePack

NEED FOR SPEED™ PAYBACK

4 сезон

9 сезон

Бесстыжие 9 сезон

Все сериалы

все сериалы на PB.wtf

RePack

FAR CRY 5
  
Magnet ссылка

Я завязал / Gettin' Square (Джонатан Теплитски) [2003, триллер, комедия, криминал, BDRip-AVC] [MVO] (Первый канал) + [AVO] (Визгунов) pb.wtf

Я завязал через торрент pb.wtf

Размер: 2.46 GB | Добавлен: 4 мес. 18 д. назад | Торрент скачан:5 раз
Скачать  

23-11-2020 20:11 Я завязал Скачать торрент  

Я завязал / Gettin' Square
Год выпуска: 2003
Страна: Австралия, Великобритания
Жанр: триллер, комедия, криминал
Продолжительность: 01:42:14
Перевод 1: Профессиональный (многоголосый закадровый) Первый канал
Перевод 2: Авторский (одноголосный закадровый) С. Визгунов
Субтитры: английские

Режиссер: Джонатан Теплитски / Jonathan Teplitzky

В ролях: Сэм Уортингтон, Дэвид Уэнэм, Тимоти Сполл, Фрея Стэффорд, Гари Свит, Дэвид Робертс, Дэвид Филд, Люк Пеглер, Ричард Картер, Митчел Бутел, Гарри Уоддэлл, Джон Брамптон

Описание: «Уотси» Верт, только что вышедший из тюрьмы, собирается начать новую жизнь. Его приятели — мелкий жулик Джонни Спитиери и вор Дабба Баррингтон — тоже на пути к исправлению. Решетка для них осталась в прошлом, и друзья клянутся, что никогда за нее не вернуться. За их праведными намерениями пристально следит недавно сформированная Следственная комиссия. И ребятам придется изрядно потрудиться и пошевелить мозгами, чтобы сдержать обещание…

Сэмпл: https://yadi.sk/i/lUokY_IiXTMt3A

Качество видео: BDRip-AVC
Формат видео: MKV

Видео: x264, 912x494 (1.85:1) 23,976 fps, ~2608 kbps, 0,241 bit/pixel
Аудио 1: 48 kHz, AC3, 2/0 (L,R) ch, ~192 kbps avg | Первый канал
Аудио 2: 48 kHz, AC3, 2/0 (L,R) ch, ~192 kbps avg | Визгунов
Аудио 3: 48 kHz, AC3 Dolby Digital, 3/2 (L,C,R,l,r) + LFE ch, ~448 kbps | Английский
Формат субтитров: softsub (SRT)
General
Unique ID : 250847108381470417023439090623066194983 (0xBCB7654FD68C6C0F62B1717FEEACC427)
Format : Matroska
Format version : Version 4 / Version 2
File size : 2.46 GiB
Duration : 1h 42mn
Overall bit rate : 3 443 Kbps
Encoded date : UTC 2020-11-23 07:22:01
Writing application : mkvmerge v51.0.0 ('I Wish') 64-bit
Writing library : libebml v1.4.0 + libmatroska v1.6.2
Video #1
ID : 1
Format : AVC
Format/Info : Advanced Video Codec
Format profile : High@L4.1
Format settings, CABAC : Yes
Format settings, ReFrames : 10 frames
Codec ID : V_MPEG4/ISO/AVC
Duration : 1h 42mn
Bit rate : 2 608 Kbps
Width : 912 pixels
Height : 494 pixels
Display aspect ratio : 1.85:1
Frame rate mode : Constant
Frame rate : 23.976 (24000/1001) fps
Color space : YUV
Chroma subsampling : 4:2:0
Bit depth : 8 bits
Scan type : Progressive
Bits/(Pixel*Frame) : 0.241
Stream size : 1.86 GiB (76%)
Writing library : x264 core 161 r3018 db0d417
Encoding settings : cabac=1 / ref=10 / deblock=1:-3:-2 / analyse=0x3:0x133 / me=umh / subme=10 / psy=1 / psy_rd=1.00:0.00 / mixed_ref=1 / me_range=32 / chroma_me=1 / trellis=2 / 8x8dct=1 / cqm=0 / deadzone=21,11 / fast_pskip=0 / chroma_qp_offset=-2 / threads=6 / lookahead_threads=1 / sliced_threads=0 / nr=0 / decimate=1 / interlaced=0 / bluray_compat=0 / constrained_intra=0 / bframes=12 / b_pyramid=2 / b_adapt=2 / b_bias=0 / direct=1 / weightb=1 / open_gop=0 / weightp=2 / keyint=250 / keyint_min=23 / scenecut=40 / intra_refresh=0 / rc=crf / mbtree=0 / crf=19.6 / qcomp=0.65 / qpmin=0 / qpmax=69 / qpstep=4 / ip_ratio=1.40 / pb_ratio=1.30 / aq=3:0.90
Language : English
Default : Yes
Forced : No
Audio #2
ID : 2
Format : AC-3
Format/Info : Audio Coding 3
Mode extension : CM (complete main)
Format settings, Endianness : Big
Codec ID : A_AC3
Duration : 1h 42mn
Bit rate mode : Constant
Bit rate : 192 Kbps
Channel(s) : 2 channels
Channel positions : Front: L R
Sampling rate : 48.0 KHz
Frame rate : 31.250 fps (1536 spf)
Compression mode : Lossy
Stream size : 140 MiB (6%)
Title : ОРТ
Language : Russian
Default : Yes
Forced : No
Audio #3
ID : 3
Format : AC-3
Format/Info : Audio Coding 3
Mode extension : CM (complete main)
Format settings, Endianness : Big
Codec ID : A_AC3
Duration : 1h 42mn
Bit rate mode : Constant
Bit rate : 192 Kbps
Channel(s) : 2 channels
Channel positions : Front: L R
Sampling rate : 48.0 KHz
Frame rate : 31.250 fps (1536 spf)
Compression mode : Lossy
Stream size : 140 MiB (6%)
Title : авторский - Сергей Визгунов
Language : Russian
Default : No
Forced : No
Audio #4
ID : 4
Format : AC-3
Format/Info : Audio Coding 3
Mode extension : CM (complete main)
Format settings, Endianness : Big
Codec ID : A_AC3
Duration : 1h 42mn
Bit rate mode : Constant
Bit rate : 448 Kbps
Channel(s) : 6 channels
Channel positions : Front: L C R, Side: L R, LFE
Sampling rate : 48.0 KHz
Frame rate : 31.250 fps (1536 spf)
Compression mode : Lossy
Stream size : 328 MiB (13%)
Language : English
Default : No
Forced : No
Text #5
ID : 5
Format : UTF-8
Codec ID : S_TEXT/UTF8
Codec ID/Info : UTF-8 Plain Text
Duration : 1h 35mn
Bit rate : 76 bps
Count of elements : 1498
Stream size : 53.6 KiB (0%)
Language : English
Default : Yes
Forced : No
raw [info]: 912x494p 1:1 @ 24000/1001 fps (cfr)
x264 [info]: using SAR=1/1
x264 [info]: using cpu capabilities: MMX2 SSE2Fast SSSE3 SSE4.2 AVX XOP FMA3 BMI1
x264 [info]: profile High, level 4.1, 4:2:0, 8-bit
x264 [info]: frame I:1162 Avg QP:18.56 size: 56044
x264 [info]: frame P:27737 Avg QP:19.92 size: 26927
x264 [info]: frame B:118172 Avg QP:21.75 size: 10053
x264 [info]: consecutive B-frames: 1.2% 1.0% 3.3% 13.8% 22.2% 38.8% 10.2% 3.6% 2.2% 1.6% 0.8% 0.7% 0.6%
x264 [info]: mb I I16..4: 3.2% 84.9% 11.9%
x264 [info]: mb P I16..4: 0.3% 12.7% 1.0% P16..4: 35.9% 26.2% 18.8% 0.5% 0.1% skip: 4.4%
x264 [info]: mb B I16..4: 0.0% 0.8% 0.1% B16..8: 44.1% 15.6% 5.6% direct: 6.1% skip:27.7% L0:46.7% L1:43.7% BI: 9.6%
x264 [info]: 8x8 transform intra:89.1% inter:59.9%
x264 [info]: coded y,uvDC,uvAC intra: 96.1% 71.8% 40.0% inter: 36.6% 16.3% 0.7%
x264 [info]: i16 v,h,dc,p: 46% 17% 6% 31%
x264 [info]: i8 v,h,dc,ddl,ddr,vr,hd,vl,hu: 9% 7% 9% 11% 14% 14% 13% 12% 12%
x264 [info]: i4 v,h,dc,ddl,ddr,vr,hd,vl,hu: 12% 8% 2% 9% 15% 16% 14% 12% 11%
x264 [info]: i8c dc,h,v,p: 37% 27% 20% 16%
x264 [info]: Weighted P-Frames: Y:10.8% UV:5.6%
x264 [info]: ref P L0: 39.9% 12.4% 18.1% 7.3% 6.4% 4.5% 4.3% 2.3% 2.4% 2.1% 0.2% 0.0%
x264 [info]: ref B L0: 64.3% 13.1% 8.0% 4.4% 3.4% 2.9% 2.4% 1.1% 0.4%
x264 [info]: ref B L1: 92.5% 7.5%
x264 [info]: kb/s:2608.27

x264 [total]: encoded 147071 frames, 7.06 fps, 2608.27 kb/s
скриншот  скриншот  скриншот  
pb.wtf



Скачать Я завязал через торрент http://images.vfl.ru/ii/1606121730/5766824b/32406781.png Скачать фильм Я завязал через торрент бесплантно в хорошем качестве Описание: «Уотси» Верт, только что вышедший из тюрьмы, собирается начать новую жизнь. Его приятели — мелкий жулик Джонни Спитиери и вор ... 10 10 3
Торрент: Зарегистрирован [2020-11-23 20:11] · скачан: 5 раз
Статус: √ проверено
Размер: 2.46 GB
Как cкачать? Как скачать Я завязал через торрент | UTorrent

28-11-2019 20:33  

Отключить всю рекламу на сайте

    Дорогой пользователь! Огромная просьба, поблагодарите релизера, оцените раздачу и оставьте свои комментарий, если Вы скачали Я завязал через торрент бесплатно! Внесите свою лепту в развитие PiratBit!
    Комментировать посты могут только пользователи прошедшие не сложную регистрацию
    Показать сообщения:    

    Я завязал через торрент
    Скачать бесплатно Я завязал
    Я завязал скачать торрент
    Я завязал смотреть онлайн
    Cкачать фильм Я завязал бесплатно
    Я завязал скачать торрент в хорошем качестве
    Я завязал смотреть онлайн бесплатно в хорошем качестве


    Вы не можете начинать темы
    Вы не можете отвечать на сообщения
    Вы не можете редактировать свои сообщения
    Вы не можете удалять свои сообщения
    Вы не можете голосовать в опросах
    Вы не можете прикреплять файлы к сообщениям
    Вы можете скачивать файлы