2 сезон

iTunes

MVO

1

2 сезон

iTunes

iTunes

1 сезон

RePack

30

Новинка

ВАЖНО

ИГРА 18+

pack

RePack

MK11
pack

Легкие деньги

RePack

jed

RePack

fifa19

RePack

RDR2

RePack

NEED FOR SPEED™ PAYBACK

4 сезон

9 сезон

Бесстыжие 9 сезон

Все сериалы

все сериалы на PB.wtf

RePack

FAR CRY 5

Anonymous, добрый вечер, мы не успеваем собрать деньги на оплату серверов за декабрь и январь, помогите нам пожалуйста в это трудное время. В качестве благодарности мы отключим Вам всю рекламу на сайте (укажите свой ник в строку Ваше имя)!

×
  
Magnet ссылка

Рок-н-рольщик / RocknRolla (Гай Ричи) [2008, боевик, триллер, криминал, BDRip - HEVC 1080p 10 bit 60 FPS, AVO (Д.Пучков "ака" Гоблин)] pb.wtf

Рок-н-рольщик через торрент pb.wtf

Раздают: 3 [ 0 KB/s ]
Размер: 3.92 GB | Добавлен: 1 мес. 18 д. назад | Торрент скачан:47 раз
Скачать  

24-11-2020 16:21 Рок-н-рольщик Скачать торрент  

RocknRolla«Секс, стволы и рок-н-ролл!»

Год выпуска: 2008
Страна: США, Великобритания
Жанр: криминал, боевик, триллер

Продолжительность: 01:54:19
Перевод: Одноголосый закадровый (Д.Пучков)
Субтитры: есть

Режиссер: Гай Ричи

В ролях: Джерард Батлер, Марк Стронг, Том Харди, Идрис Эльба, Том Уилкинсон, Тэнди Ньютон, Карел Роден, Джереми Пивен, Лудакрис, Джемма Артертон, Тоби Кеббелл.

Описание:
Фильм окунет вас в опасный мир коррупции и жизни криминальных отбросов современного Лондона, где недвижимость потеснила такого внушительного лидера торгового рынка, как наркотики, а самыми активными предпринимателями стали преступные группировки. Но каждому, кто захочет проворачивать там свои дела, будь то мелкая сошка Раз-два или русский теневой миллиардер Юрий Омович, придется сначала договориться с одним и тем же человеком — Ленни Коулом.

Мировая премьера: 4 сентября 2008


Качество: BDRip 1080p by DD2D3
Формат: MKV
Видео кодек: V_MPEGH/ISO/HEVC
Аудио кодек: AC3
Видео: V_MPEGH/ISO/HEVC; 1920x800 (2.40:1); 4502 Kbps; 59,940 fps; 0,049 bpp
Аудио: русский; AC3; 384 Kbps; CBR; 6 ch
Навигация по главам: нет



General
Unique ID : 185159177720468574095952183590882177767 (0x8B4C5C48BEA81C0DA6DB8EB5B458F2E7)
Complete name : D:\RocknRolla (2008) BDRip - HEVC 1080p 10 bit 60 FPS.mkv
Format : Matroska
Format version : Version 4
File size : 3.92 GiB
Duration : 1 h 54 min
Overall bit rate : 4 910 kb/s
Movie name : Rip by from DD2D3
Encoded date : UTC 2020-11-27 18:43:29
Writing application : mkvmerge v10.0.0 ('To Drown In You') 32bit
Writing library : libebml v1.3.4 + libmatroska v1.4.5
Attachments : poster

Video
ID : 1
Format : HEVC
Format/Info : High Efficiency Video Coding
Format profile : Main 10@L4.1@Main
Codec ID : V_MPEGH/ISO/HEVC
Duration : 1 h 54 min
Bit rate : 4 502 kb/s
Width : 1 920 pixels
Height : 800 pixels
Display aspect ratio : 2.40:1
Frame rate mode : Constant
Frame rate : 59.940 (60000/1001) FPS
Color space : YUV
Chroma subsampling : 4:2:0
Bit depth : 10 bits
Bits/(Pixel*Frame) : 0.049
Stream size : 3.60 GiB (92%)
Writing library : x265 2.3+33-0b7d54dbb71a87a0:[Windows][MSVC 1800][64 bit] 10bit: KG7x [x265.ru]
Encoding settings : cpuid=1173503 / frame-threads=2 / numa-pools=4 / wpp / no-pmode / no-pme / no-psnr / no-ssim / log-level=2 / input-csp=1 / input-res=1920x800 / interlace=0 / total-frames=411133 / level-idc=41 / high-tier=1 / uhd-bd=0 / ref=3 / no-allow-non-conformance / no-repeat-headers / annexb / no-aud / no-hrd / info / hash=0 / no-temporal-layers / open-gop / min-keyint=25 / keyint=250 / bframes=4 / b-adapt=2 / b-pyramid / bframe-bias=0 / rc-lookahead=20 / lookahead-slices=5 / scenecut=40 / no-intra-refresh / ctu=64 / min-cu-size=8 / no-rect / no-amp / max-tu-size=32 / tu-inter-depth=1 / tu-intra-depth=1 / limit-tu=0 / rdoq-level=0 / dynamic-rd=0.00 / no-ssim-rd / signhide / no-tskip / nr-intra=0 / nr-inter=0 / no-constrained-intra / strong-intra-smoothing / max-merge=2 / limit-refs=3 / no-limit-modes / me=1 / subme=2 / merange=57 / temporal-mvp / weightp / no-weightb / no-analyze-src-pics / deblock=0:0 / sao / no-sao-non-deblock / rd=3 / no-early-skip / rskip / no-fast-intra / no-tskip-fast / no-cu-lossless / no-b-intra / rdpenalty=0 / psy-rd=2.00 / psy-rdoq=0.00 / no-rd-refine / analysis-mode=0 / no-lossless / cbqpoffs=0 / crqpoffs=0 / rc=abr / bitrate=4500 / qcomp=0.60 / qpstep=4 / stats-write=0 / stats-read=2 / cplxblur=20.0 / qblur=0.5 / ipratio=1.40 / pbratio=1.30 / aq-mode=1 / aq-strength=1.00 / cutree / zone-count=0 / no-strict-cbr / qg-size=32 / no-rc-grain / qpmax=69 / qpmin=0 / sar=1 / overscan=0 / videoformat=5 / range=0 / colorprim=2 / transfer=2 / colormatrix=2 / chromaloc=0 / display-window=0 / max-cll=0,0 / min-luma=0 / max-luma=1023 / log2-max-poc-lsb=8 / vui-timing-info / vui-hrd-info / slices=1 / opt-qp-pps / opt-ref-list-length-pps / no-multi-pass-opt-rps / scenecut-bias=0.05 / no-opt-cu-delta-qp / no-aq-motion / no-hdr / no-hdr-opt / refine-level=5 / no-limit-sao
Default : Yes
Forced : No

Audio
ID : 2
Format : AC-3
Format/Info : Audio Coding 3
Commercial name : Dolby Digital
Codec ID : A_AC3
Duration : 1 h 54 min
Bit rate mode : Constant
Bit rate : 384 kb/s
Channel(s) : 6 channels
Channel layout : L R C LFE Ls Rs
Sampling rate : 48.0 kHz
Frame rate : 31.250 FPS (1536 SPF)
Compression mode : Lossy
Delay relative to video : 100 ms
Stream size : 314 MiB (8%)
Service kind : Complete Main
Default : No
Forced : No

Text
ID : 3
Format : PGS
Muxing mode : zlib
Codec ID : S_HDMV/PGS
Codec ID/Info : Picture based subtitle format used on BDs/HD-DVDs
Duration : 1 h 53 min
Bit rate : 17.9 kb/s
Count of elements : 3264
Stream size : 14.5 MiB (0%)
Language : Russian
Default : Yes
Forced : No


скриншот   скриншот   скриншот   скриншот  


pb.wtf



Скачать Рок-н-рольщик через торрент https://funkyimg.com/i/38T5H.jpeg Скачать фильм Рок-н-рольщик через торрент бесплантно в хорошем качестве Описание: Фильм окунет вас в опасный мир коррупции и жизни криминальных отбросов современного Лондона, где недвижимость потеснила такого ... 9.9 10 9
Info! Золотая раздача, скачанное не засчитывается.
Торрент: Зарегистрирован [2020-11-27 18:52] · скачан: 47 раз
Статус: √ проверено
Размер: 3.92 GB
Как cкачать? Как скачать Рок-н-рольщик через торрент | UTorrent

% Раздел Тема Автор DL S | L
Фильмы [HD 720p, 1080p] (Хороший звук DUB, MVO) [ 5.68 GB ] Рок-н-рольщик / RocknRolla [2008 BDRip 1080p] + [AVO] killermax2013 Скачать
5 | 0
Фильмы [HD 720p, 1080p] (Хороший звук DUB, MVO) [ 7.76 GB ] Рок-н-рольщик / RocknRolla [2008 BDRip 1080p] AVO +DUB [] bober100 Скачать
4 | 0
Фильмы [HD 720p, 1080p] (Хороший звук DUB, MVO) [ 5.8 GB ] Рок-н-рольщик / RocknRolla [2008 BDRip 720p] DUB+4xAVO+2xMVO bober100 Скачать
3 | 0
Фильмы [HD 720p, 1080p] (Хороший звук DUB, MVO) [ 7.2 GB ] Рок-н-рольщик / RocknRolla [2008 BDRip 720p] SibFrost Скачать
1 | 0
Фильмы 2006-2008 [ 1.44 GB ] Рок-н-рольщик / RocknRolla [2008 ьный BDRip-AVC] DUB + Sub potroks Скачать
2 | 0
Фильмы 2006-2008 [ 696 MB ] Рок-н-рольщик / RocknRolla [2008 DVDRip]Гоблин azagoth_666 Скачать
1 | 0
Фильмы 2006-2008 [ 3.72 GB ] Рок-н-рольщик  / RocknRolla [2008 BDRip] feldeger Скачать
1 | 0


Последний раз редактировалось: dd2d3 (2020-11-27 18:52), всего редактировалось 1 раз

28-11-2019 20:33  

Отключить всю рекламу на сайте

25-11-2020 09:54 Рок-н-рольщик Скачать торрент  

Большое спасибо ВАМ pb.wtf



27-11-2020 10:22 Рок-н-рольщик Скачать торрент  

Озвучка Пучкова есть, аж двойная! Дубляжа нет!
Так и задумано?pb.wtf



27-11-2020 15:32 Рок-н-рольщик Скачать торрент  

Формат: BDMV
Видео кодек: VC-1
Аудио кодек: DTS
Видео: 1920x1080p (2.40:1), 23.976 fps, VC-1 ~16196 kbps
Аудио: Audio№01 (ENG): TrueHD 5.1, 48 kHz, ~1537 kbps lossless (core: DD 5.1, 48 kHz, 640 kbps)
Audio№02 (ENG): DD 5.1, 48 kHz, 640 kbps
Audio№03 (CES): DD 5.1, 48 kHz, 640 kbps
Audio№04 (HUN): DD 5.1, 48 kHz, 640 kbps
Audio№05 (POL): DD 5.1, 48 kHz, 640 kbps
Audio№06 (RUS): DD 5.1, 48 kHz, 640 kbps
Audio№07 (RUS): DD 5.1, 48 kHz, 640 kbps
Audio№08 (THA): DD 5.1, 48 kHz, 640 kbps
Audio№09 (TUR): DD 5.1, 48 kHz, 640 kbps
Audio№10 (ENG): DD 2.0, 48 kHz, 192 kbps
Перевод: Первый канал (ОРТ)

исходник, я так слов 10 за просмотр нашел в отличииpb.wtf



27-11-2020 17:38 Рок-н-рольщик Скачать торрент  

dd2d3 писал(а):

Формат: BDMV
Видео кодек: VC-1
Аудио кодек: DTS
Видео: 1920x1080p (2.40:1), 23.976 fps, VC-1 ~16196 kbps
Аудио: Audio№01 (ENG): TrueHD 5.1, 48 kHz, ~1537 kbps lossless (core: DD 5.1, 48 kHz, 640 kbps)
Audio№02 (ENG): DD 5.1, 48 kHz, 640 kbps
Audio№03 (CES): DD 5.1, 48 kHz, 640 kbps
Audio№04 (HUN): DD 5.1, 48 kHz, 640 kbps
Audio№05 (POL): DD 5.1, 48 kHz, 640 kbps
Audio№06 (RUS): DD 5.1, 48 kHz, 640 kbps
Audio№07 (RUS): DD 5.1, 48 kHz, 640 kbps
Audio№08 (THA): DD 5.1, 48 kHz, 640 kbps
Audio№09 (TUR): DD 5.1, 48 kHz, 640 kbps
Audio№10 (ENG): DD 2.0, 48 kHz, 192 kbps
Перевод: Первый канал (ОРТ)

исходник, я так слов 10 за просмотр нашел в отличии

Я к тому что две дорожки присутствуют, но разницы при переключении нет! Побывал на трёх плеерах, результат один!pb.wtf



27-11-2020 17:40 Рок-н-рольщик Скачать торрент  

Может отпишится кто из скачавших о этой ситуации? Или все смотрят с Пучковым и безразницы что дубляжа нет?pb.wtf



27-11-2020 18:01 Рок-н-рольщик Скачать торрент  

я еще раз сам пересмотрюpb.wtf



28-11-2020 01:24 Рок-н-рольщик Скачать торрент  

dd2d3 писал(а):

я еще раз сам пересмотрю

Вот дубляж для сравнения!pb.wtf



28-11-2020 07:23 Рок-н-рольщик Скачать торрент  

гоблин, это конешно все оч здорово. но актуально было лет 20 назад. А сейчас только на ностальнгической наверн волне , а так- уже давно есть те же кубик в кубе, которые ну имхо канеш- в разы качественней пучкова делают, и поживей и поярче. Я бы их предпочел в озвучке чем пучка.Да. или Колесникова с куража...Опять же- имхоpb.wtf



11-12-2020 13:02 Рок-н-рольщик Скачать торрент  

хороший фильм. на зачем пучка запикали?pb.wtf



    Дорогой пользователь! Огромная просьба, поблагодарите релизера, оцените раздачу и оставьте свои комментарий, если Вы скачали Рок-н-рольщик через торрент бесплатно! Внесите свою лепту в развитие PiratBit!
    Комментировать посты могут только пользователи прошедшие не сложную регистрацию
    Показать сообщения:    

    Рок-н-рольщик через торрент
    Скачать бесплатно Рок-н-рольщик
    Рок-н-рольщик скачать торрент
    Рок-н-рольщик смотреть онлайн
    Cкачать фильм Рок-н-рольщик бесплатно
    Рок-н-рольщик скачать торрент в хорошем качестве
    Рок-н-рольщик смотреть онлайн бесплатно в хорошем качестве


    Вы не можете начинать темы
    Вы не можете отвечать на сообщения
    Вы не можете редактировать свои сообщения
    Вы не можете удалять свои сообщения
    Вы не можете голосовать в опросах
    Вы не можете прикреплять файлы к сообщениям
    Вы можете скачивать файлы