Всегда рабочее зеркало без VPN и Proxy просто перед .vidak.icu напиши любое слово или цифру, Пример http://zbg.vidak.icu

>

7.4

iTunes

7.4

2 сезон

6.6

iTunes

1

7.4

2 сезон

7.2

iTunes

6.0

MVO

13

6.1

iTunes

8.3

Пиратка

30

ULTIMATE

pack

9.9

Лицензия

ВАЖНО

ИГРА 18+

pack

7.3

RePack

MK11

7.7

RePack

jed

7.8

RePack

fifa19

8.5

RePack

RDR2

RePack

NEED FOR SPEED™ PAYBACK

1 сезон

9 сезон

Бесстыжие 9 сезон

Все сериалы

все сериалы на PB.wtf

RePack

FAR CRY 5

Anonymous, добрый день, мы катастрофически не успеваем собрать деньги на оплату серверов, помогите нам пожалуйста 5,10,15р., для нас важна любая помощь . В качестве благодарности мы отключим Вам всю рекламу на сайте (укажите свой ник в строку Ваше имя)!

×
  
Magnet ссылка

Девушка / Girl (Чэд Фауст) [2020, Триллер, драма, WEB-DL 1080p] AVO [А.Важенин [BadBajo] pb.wtf

Девушка через торрент pb.wtf

Размер: 3.37 GB | Добавлен: 1 год 2 мес. назад | Торрент скачан:42 раза
Смотреть онлайн Девушка | Скачать    Ребята, помогите собрать деньги на оплату серверов!!!

25-11-2020 06:31 Девушка Скачать торрент  

Девушка | Girl
Год выпуска: 2020
Страна: США
Студия: Fella Films, Anamorphic Media, Envision Media Arts
Жанр: Триллер, драма
Продолжительность: 01:29:50
Перевод: Авторский (одноголосый) |
Субтитры: Английские

Режиссер: Чэд Фауст

rating

В ролях: Белла Торн, Микки Рурк, Чэд Фауст, Глен Гулд, Элизабет Браун, Джанет Рэкуэл, Мики Липка, Паоло Манчини, Джон Клиффорд Талбот

Описание: История о том, как тяжело в деревне без топора. Девушка возвращается в родную глухомань, чтобы прикончить папашу, который испортил ей не только детство, но взрослую жизнь. Но по прибытии выясняется, что его уже кто-то убил. Пытаясь разобраться в случившемся, девушка вступает в противостояние с местными, которые явно что-то скрывают.

Качество: WEB-DL 1080p
Формат: MKV

Видео: AVC, 1920x800 (2.40:1), 23.976 fps ~ 4590 Kbps
Аудио#1: AC3, 48 KHz, 6 ch ~ 384 Kb/s (русский)
Аудио#2: AC3, 48 KHz, 6 ch ~ 384 Kb/s (английский)
скриншот  скриншот  скриншот  скриншот  скриншот  

Общее
Уникальный идентификатор : 333154415044703958513271847000841231274 (0xFAA334D6E37FD6DB85C3597877899BAA)
Полное имя : J:wotGirl.2020.1080p_rus_BadBajo.mkv
Формат : Matroska
Версия формата : Version 4
Размер файла : 3,37 Гбайт
Продолжительность : 1 ч. 29 м.
Общий поток : 5 363 Кбит/сек
Название фильма : EVO
Дата кодирования : UTC 2020-11-24 15:08:57
Программа кодирования : mkvmerge v42.0.0 ('Overtime') 64-bit
Библиотека кодирования : libebml v1.3.10 + libmatroska v1.5.2
Обложка : Yes
Attachments : cover.jpg / small_cover.jpg

Видео
Идентификатор : 1
Формат : AVC
Формат/Информация : Advanced Video Codec
Профиль формата : High@L4
Настройки формата : CABAC / 5 Ref Frames
Параметр CABAC формата : Да
Параметр RefFrames формата : 5 кадров
Идентификатор кодека : V_MPEG4/ISO/AVC
Продолжительность : 1 ч. 29 м.
Битрейт : 4 592 Кбит/сек
Ширина : 1 920 пикселей
Высота : 800 пикселей
Соотношение сторон : 2,40:1
Режим частоты кадров : Постоянный
Частота кадров : 23,976 (24000/1001) кадра/сек
Цветовое пространство : YUV
Субдискретизация насыщенности : 4:2:0
Битовая глубина : 8 бит
Тип развёртки : Прогрессивная
Бит/(Пиксели*Кадры) : 0.125
Размер потока : 2,88 Гбайт (86%)
Язык : English
Default : Да
Forced : Нет
Цветовой диапазон : Limited
Основные цвета : BT.709
Характеристики трансфера : BT.709
Коэффициенты матрицы : BT.709

Аудио #1
Идентификатор : 2
Формат : AC-3
Формат/Информация : Audio Coding 3
Коммерческое название : Dolby Digital
Идентификатор кодека : A_AC3
Продолжительность : 1 ч. 29 м.
Вид битрейта : Постоянный
Битрейт : 384 Кбит/сек
Каналы : 6 каналов
Channel layout : L R C LFE Ls Rs
Частота : 48,0 КГц
Частота кадров : 31,250 кадров/сек (1536 SPF)
Метод сжатия : С потерями
Задержка видео : -42 мс.
Размер потока : 247 Мбайт (7%)
Заголовок : Girl.2020.rus_BadBajo
Язык : Russian
Service kind : Complete Main
Default : Да
Forced : Да

Аудио #2
Идентификатор : 3
Формат : AC-3
Формат/Информация : Audio Coding 3
Коммерческое название : Dolby Digital
Идентификатор кодека : A_AC3
Продолжительность : 1 ч. 29 м.
Вид битрейта : Постоянный
Битрейт : 384 Кбит/сек
Каналы : 6 каналов
Channel layout : L R C LFE Ls Rs
Частота : 48,0 КГц
Частота кадров : 31,250 кадров/сек (1536 SPF)
Метод сжатия : С потерями
Задержка видео : -42 мс.
Размер потока : 247 Мбайт (7%)
Заголовок : Girl.2020.eng
Язык : English
Service kind : Complete Main
Default : Нет
Forced : Нет

Текст
Идентификатор : 4
Формат : UTF-8
Идентификатор кодека : S_TEXT/UTF8
Идентификатор кодека/Информация : UTF-8 Plain Text
Продолжительность : 1 ч. 24 м.
Битрейт : 36 бит/сек
Count of elements : 785
Размер потока : 22,8 Кбайт (0%)
Заголовок : eng
Язык : English
Default : Да
Forced : Нет

Меню
00:00:00.000 : en:1
00:04:49.581 : en:2
00:10:14.404 : en:3
00:16:12.636 : en:4
00:20:11.790 : en:5
00:24:48.066 : en:6
00:34:00.326 : en:7
00:42:12.817 : en:8
00:45:44.028 : en:9
00:49:36.468 : en:10
00:55:01.750 : en:11
01:02:49.592 : en:12
01:06:58.131 : en:13
01:13:32.233 : en:14
01:21:26.289 : en:15
01:27:08.255 : en:16

pb.wtf



Скачать Девушка через торрент https://d.radikal.ru/d12/2011/37/006c67dd6d4f.jpg Скачать, смотреть онлайн Девушка бесплантно в хорошем качестве Описание: История о том, как тяжело в деревне без топора. Девушка возвращается в родную глухомань, чтобы прикончить папашу, который ... 10 10 2
Торрент: Зарегистрирован [2020-11-25 06:31] · скачан: 42 раз
Статус: √ проверено
Размер: 3.37 GB
Как cкачать? Как скачать Девушка через торрент | UTorrent

% Раздел Тема Автор DL S | L
Эротические игры [ 14.88 GB ] VirtuaGirlHD VgHD / Виртуальные девушки - танцы на столе [ПираткаAнглийскийTotem Entertainment] Shmel Скачать
1 | 0
Фильмы [HD 720p, 1080p] (Хороший звук DUB, MVO) [ 8.52 GB ] Девушка с татуировкой дракона / The Girl with the Dragon Tattoo [2011 BDRip лицензия]Russian+Ukrainian ~Relizer~ Скачать
1 | 1
Классические порно фильмы [ 1.09 GB ] Дикие игривые девушки / Wild PlayGirls [1982 Classic Anal Double Penetration Fisting All Sex DVDRip лицензия] Shaidi Скачать
1 | 0
Фильмы 2006-2008 [ 743 MB ] Девушка напротив / Girl Next Door The [2007 ... HDRip] Virtus Скачать
1 | 0
Фильмы 2011 [ 2.18 GB ] Девушка с татуировкой дракона / The Girl with the Dragon Tattoo [2011 HDRip лицензия] ~Relizer~ Скачать
1 | 1
Аниме [DVDrip, WEB-DLRip, HDrip] [ 3.75 GB ] Девушки-самураи / Hyakka Ryouran: Samurai Girls [1-12 из 12 + SP 1-6 из 6][RUSJAP][2010 боевые искусства этти BDRip][HWP] XITMAH Скачать
1 | 0
Фильмы 2001-2005 [ 1.37 GB ] Девушка из Джерси / Jersey Girl [2004 ] jingles Скачать
1 | 1

28-11-2019 20:33  

Отключить всю рекламу на сайте

25-11-2020 13:29 Девушка Скачать торрент  

описание-хана. жаль оценки низкие.но все равно придется смотреть.я жеть старый киноман.pb.wtf



    Дорогой пользователь! Огромная просьба, поблагодарите релизера, оцените раздачу и оставьте свои комментарий, если Вы скачали Девушка через торрент бесплатно!
    Комментировать посты могут только пользователи прошедшие не сложную регистрацию
    Показать сообщения:    

    Девушка через торрент
    Скачать бесплатно Девушка
    Девушка скачать торрент
    Девушка смотреть онлайн
    Cкачать фильм Девушка бесплатно
    Девушка скачать торрент в хорошем качестве
    Девушка смотреть онлайн бесплатно в хорошем качестве


    Вы не можете начинать темы
    Вы не можете отвечать на сообщения
    Вы не можете редактировать свои сообщения
    Вы не можете удалять свои сообщения
    Вы не можете голосовать в опросах
    Вы не можете прикреплять файлы к сообщениям
    Вы можете скачивать файлы