Anonymous, добрый день, присоединяйтесь к нам в Telegram!, здесь всегда актуальный адрес сайта, оперативная поддержка и многое другое!

>

5.5

iTunes

7.4

iTunes

7.9

iTunes

1

7.7

1 сезон

6.8

iTunes

7.3

1 сезон

13

6.7

1 сезон

8.3

RePack

30

ULTIMATE

pack

9.9

Лицензия

ВАЖНО

ИГРА 18+

pack

7.3

RePack

MK11

7.7

RePack

jed

7.8

RePack

fifa19

8.5

RePack

RDR2

RePack

NEED FOR SPEED™ PAYBACK

4 сезон

9 сезон

Бесстыжие 9 сезон

Все сериалы

все сериалы на PB.wtf

RePack

FAR CRY 5

Anonymous, добрый день, мы катастрофически не успеваем собрать деньги на оплату серверов, помогите нам пожалуйста 5,10,15р., для нас важна любая помощь . В качестве благодарности мы отключим Вам всю рекламу на сайте (укажите свой ник в строку Ваше имя)!

×
  
Magnet ссылка

Иванько / Сезон: 1 / Серии: 1-17 из 17 (Шота Гамисония, Всеволод Бродский, Ксения Воронина) [2020, Комедия, HDTV 1080i] pb.wtf

Иванько через торрент pb.wtf

Размер: 18.3 GB | Добавлен: 10 мес. назад | Торрент скачан:78 раз
Смотреть онлайн Иванько | Скачать    Ребята, помогите собрать деньги на оплату серверов!!!

26-11-2020 19:17 Иванько Скачать торрент  

Иванько
Год выпуска: 2020
Страна: Россия
Выпущено: Good Story Media по заказу телеканала ТНТ
Жанр: Комедия
Продолжительность: ~ 00:25:00 серия
Перевод: Не требуется
Субтитры: отсутствуют

Режиссер: Шота Гамисония, Всеволод Бродский, Ксения Воронина



В ролях: Ангелина Миримская, Валентина Мазунина, Виктория Заболотная, Михаил Тройник, Алексей Вертков, Денис Шведов, Елена Шевченко, Алексей Ведерников (II), Шота Гамисония, Анастасия Акатова, Антон Шаврин, Александр Яценко, Валерия Яковлева, Георгий Сегал, Никита Карбан, Полина Давыдова

Описание: Раскрепощенная и хамоватая Настя — учительница танцев и тамада, скромница Валя — психолог и учительница английского. Им чуть за тридцать, и вроде все, как у всех. Но одна до сих пор живет с мамой, вторая с ненадежным бойфрендом, с которым у нее постоянные скандалы. Они встретились при странных обстоятельствах — в обезьяннике в отделе полиции. Выслушав истории друг друга, девушки решают во что бы то ни стало помочь подруге изменить жизнь, не спрашивая, хочет она этого или нет. Но именно это вмешательство помогает им понять, что, на самом деле, обе они несчастны, и с этим уже пора что-то делать. Но понять – еще не значит изменить. Этот путь оказывается не так уж и прост. В погоне за счастьем они постоянно спотыкаются, наступают на одни и те же грабли, усугубляя и без того навалившиеся проблемы с личной жизнью, работой, родителями.

Качество: HDTV 1080i
Формат: TS

Видео: 1920х1080 (16:9), 25 fps, AVC MPEG-4 (x264), High@L4.0 ~ 6000 kbps avg, 0.105 bit/pixel
Аудио: 48 kHz, MPEG Layer 2, 2 ch, ~ 192 kbps avg
скриншот  скриншот  скриншот  скриншот  

Общее
Идентификатор : 1 (0x1)
Полное имя : C:\Ivanko.2020.HDTV.(1080i).ExKinoray\Ivanko.E01.2020.HDTV.(1080i).ExKinoray.ts
Формат : MPEG-TS
Размер файла : 1,09 Гбайт
Продолжительность : 24 м. 27 с.
Режим общего битрейта : Переменный
Общий поток : 6393 Кбит/сек

Видео
Идентификатор : 211 (0xD3)
Идентификатор меню : 1604 (0x644)
Формат : AVC
Формат/Информация : Advanced Video Codec
Профиль формата : High@L4
Настройки формата : CABAC / 4 Ref Frames
Параметр CABAC формата : Да
Параметр RefFrames формата : 4 кадра
Идентификатор кодека : 27
Продолжительность : 24 м. 27 с.
Битрейт : 5883 Кбит/сек
Ширина : 1920 пикселей
Высота : 1080 пикселей
Соотношение сторон : 16:9
Частота кадров : 25,000 кадров/сек
Стандарт вещания : Component
Цветовое пространство : YUV
Субдискретизация насыщенности : 4:2:0
Битовая глубина : 8 бит
Тип развёртки : Чересстрочная
Метод сохранения типа развёртки : Раздельные поля
Порядок развёртки : Верхнее поле первое
Бит/(Пиксели*Кадры) : 0.113
Размер потока : 1,00 Гбайт (92%)
Цветовой диапазон : Limited
Основные цвета : BT.709
Характеристики трансфера : BT.709
Коэффициенты матрицы : BT.709

Аудио
Идентификатор : 221 (0xDD)
Идентификатор меню : 1604 (0x644)
Формат : MPEG Audio
Версия формата : Version 1
Профиль формата : Layer 2
Идентификатор кодека : 3
Продолжительность : 24 м. 27 с.
Вид битрейта : Постоянный
Битрейт : 192 Кбит/сек
Каналы : 2 канала
Частота : 48,0 КГц
Частота кадров : 41,667 кадра/сек (1152 SPF)
Метод сжатия : С потерями
Задержка видео : -80 мс.
Размер потока : 33,6 Мбайт (3%)
Язык : Russian

pb.wtf



Скачать Иванько через торрент https://img11.lostpic.net/2020/11/02/875dac704794e893b35e7e95091f5e1b.jpg Скачать, смотреть онлайн Иванько бесплантно в хорошем качестве Описание: Раскрепощенная и хамоватая Настя — учительница танцев и тамада, скромница Валя — психолог и учительница английского. Им чуть за ... 10 10 8
Торрент: Зарегистрирован [2020-11-26 19:17] · скачан: 78 раз
Статус: √ проверено
Размер: 18.3 GB
Как cкачать? Как скачать Иванько через торрент | UTorrent

% Раздел Тема Автор DL S | L
TNT serials [ 4.98 GB ] Иванько / Сезон: 1 / Серии: 1-17 из 17 [2020 WEBRip] bober100 Скачать
2 | 0
TNT serials [ 5.32 GB ] Иванько / Сезон: 1 / Серии: 1-17 из 17 [2020 WEBRip-AVC] bober100 Скачать
1 | 0
TNT serials [ 9.46 GB ] Иванько / Сезон: 1 / Серии: 1-17 из 17 [2020 WEBRip 720p] bober100 Скачать
3 | 0
TNT serials [ 13.92 GB ] Иванько / Сезон: 1 / Серии: 1-17 из 17 [2020 WEBRip 1080p] bober100 Скачать
1 | 0
TNT serials [ 4.98 GB ] Иванько / Сезон: 1 / Серии: 1-17 из 17 [2020 SATRip] bober100 Скачать
1 | 0

28-11-2019 20:33  

Отключить всю рекламу на сайте

    Дорогой пользователь! Огромная просьба, поблагодарите релизера, оцените раздачу и оставьте свои комментарий, если Вы скачали Иванько через торрент бесплатно!
    Комментировать посты могут только пользователи прошедшие не сложную регистрацию
    Показать сообщения:    

    Иванько через торрент
    Скачать бесплатно Иванько
    Иванько скачать торрент
    Иванько смотреть онлайн
    Cкачать фильм Иванько бесплатно
    Иванько скачать торрент в хорошем качестве
    Иванько смотреть онлайн бесплатно в хорошем качестве


    Вы не можете начинать темы
    Вы не можете отвечать на сообщения
    Вы не можете редактировать свои сообщения
    Вы не можете удалять свои сообщения
    Вы не можете голосовать в опросах
    Вы не можете прикреплять файлы к сообщениям
    Вы можете скачивать файлы