Anonymous, доброй ночи, присоединяйтесь к нам в Telegram!, здесь всегда актуальный адрес сайта, оперативная поддержка и многое другое!

>

5.6

iTunes

7.4

MVO

5.7

MVO

1

7.7

1 сезон

6.8

iTunes

7.3

1 сезон

13

6.7

1 сезон

8.3

RePack

30

ULTIMATE

pack

9.9

Лицензия

ВАЖНО

ИГРА 18+

pack

7.3

RePack

MK11

7.7

RePack

jed

7.8

RePack

fifa19

8.5

RePack

RDR2

RePack

NEED FOR SPEED™ PAYBACK

4 сезон

9 сезон

Бесстыжие 9 сезон

Все сериалы

все сериалы на PB.wtf

RePack

FAR CRY 5

Anonymous, доброй ночи, мы катастрофически не успеваем собрать деньги на оплату серверов, помогите нам пожалуйста 5,10,15р., для нас важна любая помощь . В качестве благодарности мы отключим Вам всю рекламу на сайте (укажите свой ник в строку Ваше имя)!

×
  
Magnet ссылка

Назад в будущее: Трилогия / Back to the Future Trilogy (Роберт Земекис)[1985 - 1990, США, Фантастика, боевик, комедия, приключения, BDRip - HEVC 1080p 10 bit 60 FPS, Дубляж] pb.wtf

Назад в будущее: Трилогия через торрент pb.wtf

Раздают: 2 [ 0 KB/s ]
Размер: 13.26 GB | Добавлен: 10 мес. назад | Торрент скачан:56 раз
Смотреть онлайн Назад в будущее: Трилогия | Скачать    Ребята, помогите собрать деньги на оплату серверов!!!

27-11-2020 17:18 Назад в будущее: Трилогия Скачать торрент  



«Наза́д в бу́дущее» (англ. Back to the Future) — научно-фантастическая трилогия о путешествиях во времени, описывающая альтернативные реальности маленького американского городка Хилл-Вэлли и нескольких проживающих там семей, поставленная режиссёром Робертом Земекисом и спродюсированная Фрэнком Маршаллом и Кэтлин Кеннеди. Первый фильм вышел в 1985 году в кинотеатрах Соединённых Штатов и Канады.

Назад в будущее - Back to the Future«Семнадцатилетний Марти МакФлай пришел вчера домой пораньше. На 30 лет раньше»

Год выпуска: 1985
Страна: США
Жанр: фантастика, комедия, приключения

Продолжительность: 01:56:03
Перевод: Дубляж
Субтитры: русские

Режиссер: Роберт Земекис

В ролях: Майкл Дж. Фокс, Кристофер Ллойд, Лиа Томпсон, Криспин Гловер, Томас Ф. Уилсон, Клодия Уэллс, Марк МакКлюр, Уэнди Джо Спербер, Джордж ДиЧенцо, Фрэнсис Ли МакКейн

Описание:
Подросток Марти с помощью машины времени, сооруженной его другом профессором доком Брауном, попадает из 80-х в далекие 50-е. Там он встречается со своими будущими родителями, еще подростками, и другом-профессором, совсем молодым.

Мировая премьера: 3 июля 1985


Качество: BDRip 1080p by DD2D3
Формат: MKV
Видео кодек: V_MPEGH/ISO/HEVC
Аудио кодек: AC3
Видео: V_MPEGH/ISO/HEVC; 1920x1038 (1.85:1); 5000 Kbps; 59,940 fps; 0,042 bpp
Аудио: русский; AAC LC; 547 Kbps; 6 ch
Навигация по главам: есть



General
Unique ID : 190220946752457669623591479901706381758 (0x8F1B38C3F44ACBA9AB231657C679E9BE)
Complete name : D:\Back to the Future Trilogy (1985-1990) BDRip - HEVC 1080p 10 bit 60 FPS\Back to the Future (1985) BDRip - HEVC 1080p 10 bit 60 FPS.mkv
Format : Matroska
Format version : Version 4
File size : 4.50 GiB
Duration : 1 h 56 min
Overall bit rate : 5 555 kb/s
Movie name : Rip by from DD2D3
Encoded date : UTC 2020-11-27 14:44:00
Writing application : mkvmerge v10.0.0 ('To Drown In You') 32bit
Writing library : libebml v1.3.4 + libmatroska v1.4.5
Attachments : poster

Video
ID : 1
Format : HEVC
Format/Info : High Efficiency Video Coding
Format profile : Main 10@L4.1@Main
Codec ID : V_MPEGH/ISO/HEVC
Duration : 1 h 56 min
Bit rate : 5 000 kb/s
Width : 1 920 pixels
Height : 1 038 pixels
Display aspect ratio : 1.85:1
Frame rate mode : Constant
Frame rate : 59.940 (60000/1001) FPS
Color space : YUV
Chroma subsampling : 4:2:0
Bit depth : 10 bits
Bits/(Pixel*Frame) : 0.042
Stream size : 4.05 GiB (90%)
Writing library : x265 2.3+33-0b7d54dbb71a87a0:[Windows][MSVC 1800][64 bit] 10bit: KG7x [x265.ru]
Encoding settings : cpuid=1173503 / frame-threads=2 / numa-pools=4 / wpp / no-pmode / no-pme / no-psnr / no-ssim / log-level=2 / input-csp=1 / input-res=1920x1038 / interlace=0 / total-frames=417406 / level-idc=41 / high-tier=1 / uhd-bd=0 / ref=3 / no-allow-non-conformance / no-repeat-headers / annexb / no-aud / no-hrd / info / hash=0 / no-temporal-layers / open-gop / min-keyint=25 / keyint=250 / bframes=4 / b-adapt=2 / b-pyramid / bframe-bias=0 / rc-lookahead=20 / lookahead-slices=6 / scenecut=40 / no-intra-refresh / ctu=64 / min-cu-size=8 / no-rect / no-amp / max-tu-size=32 / tu-inter-depth=1 / tu-intra-depth=1 / limit-tu=0 / rdoq-level=0 / dynamic-rd=0.00 / no-ssim-rd / signhide / no-tskip / nr-intra=0 / nr-inter=0 / no-constrained-intra / strong-intra-smoothing / max-merge=2 / limit-refs=3 / no-limit-modes / me=1 / subme=2 / merange=57 / temporal-mvp / weightp / no-weightb / no-analyze-src-pics / deblock=0:0 / sao / no-sao-non-deblock / rd=3 / no-early-skip / rskip / no-fast-intra / no-tskip-fast / no-cu-lossless / no-b-intra / rdpenalty=0 / psy-rd=2.00 / psy-rdoq=0.00 / no-rd-refine / analysis-mode=0 / no-lossless / cbqpoffs=0 / crqpoffs=0 / rc=abr / bitrate=5000 / qcomp=0.60 / qpstep=4 / stats-write=0 / stats-read=2 / cplxblur=20.0 / qblur=0.5 / ipratio=1.40 / pbratio=1.30 / aq-mode=1 / aq-strength=1.00 / cutree / zone-count=0 / no-strict-cbr / qg-size=32 / no-rc-grain / qpmax=69 / qpmin=0 / sar=1 / overscan=0 / videoformat=5 / range=0 / colorprim=2 / transfer=2 / colormatrix=2 / chromaloc=0 / display-window=0 / max-cll=0,0 / min-luma=0 / max-luma=1023 / log2-max-poc-lsb=8 / vui-timing-info / vui-hrd-info / slices=1 / opt-qp-pps / opt-ref-list-length-pps / no-multi-pass-opt-rps / scenecut-bias=0.05 / no-opt-cu-delta-qp / no-aq-motion / no-hdr / no-hdr-opt / refine-level=5 / no-limit-sao
Default : Yes
Forced : No

Audio
ID : 2
Format : AAC LC
Format/Info : Advanced Audio Codec Low Complexity
Codec ID : A_AAC-2
Duration : 1 h 55 min
Bit rate : 548 kb/s
Channel(s) : 6 channels
Channel layout : C L R Ls Rs LFE
Sampling rate : 48.0 kHz
Frame rate : 46.875 FPS (1024 SPF)
Compression mode : Lossy
Delay relative to video : 5 ms
Stream size : 455 MiB (10%)
Title : Дубляж студии "Пифагор"
Language : Russian
Default : Yes
Forced : No

Text
ID : 3
Format : UTF-8
Codec ID : S_TEXT/UTF8
Codec ID/Info : UTF-8 Plain Text
Duration : 1 h 50 min
Bit rate : 93 b/s
Count of elements : 1352
Stream size : 75.3 KiB (0%)
Language : Russian
Default : No
Forced : No

Menu
00:00:00.000 : en:Main Titles
00:04:11.210 : en:Late for School
00:06:44.947 : en:The Slacker
00:11:42.910 : en:The Family McFly
00:18:01.830 : en:A Time Machine?
00:28:09.939 : en:Escape from the Past
00:31:28.345 : en:1955
00:38:38.358 : en:Dad the Dork
00:41:19.978 : en:Calvin & Lorraine
00:47:51.034 : en:Future Boy & Doc
00:55:50.806 : en:Marty's Problem
00:58:47.483 : en:The Matchmaker
01:05:14.411 : en:Skateboard Hero
01:16:37.926 : en:The Big Date
01:20:12.265 : en:The Real George
01:27:20.944 : en:Johnny B. Goode
01:31:09.672 : en:Back to the Future
01:41:38.176 : en:Doc's Decision
01:46:39.060 : en:Future Shock
01:51:22.134 : en:Roads? (Credits)


скриншот   скриншот   скриншот   скриншот  


Назад в будущее 2 - Back to the Future Part 2«Все это о времени»

Год выпуска: 1989
Страна: США
Жанр: фантастика, комедия, приключения

Продолжительность: 01:47:59
Перевод: Дубляж
Субтитры: нет

Режиссер: Роберт Земекис

В ролях: Майкл Дж. Фокс, Кристофер Ллойд, Лиа Томпсон, Томас Ф. Уилсон, Элизабет Шу, Джеймс Толкан, Джеффри Вайсман, Кэйси Семашко, Билли Зейн, Дж.Дж. Коэн

Описание:
Продолжение фантастической истории о приключениях американского подростка во времени. На этот раз с помощью модернизированной Доком машины времени Марти из 80-х попадает в будущее.

Мировая премьера: 20 ноября 1989


Качество: BDRip 1080p by DD2D3
Формат: MKV
Видео кодек: V_MPEGH/ISO/HEVC
Аудио кодек: DTS
Видео: V_MPEGH/ISO/HEVC; 1920x1040 (1.85:1);4503 Kbps; 59,940 fps; 0,038 bpp
Аудио: русский; DTS; 768 Kbps; CBR; 6 ch; 24 bit
Навигация по главам: нет



General
Unique ID : 197593196240064746695123485613032196034 (0x94A710BA6C575CAA9641FF2DB263C7C2)
Complete name : D:\Back to the Future Trilogy (1985-1990) BDRip - HEVC 1080p 10 bit 60 FPS\Back to the Future Part II (1989) BDRip - HEVC 1080p 10 bit 60 FPS .mkv
Format : Matroska
Format version : Version 4
File size : 3.98 GiB
Duration : 1 h 47 min
Overall bit rate : 5 278 kb/s
Movie name : Rip by from DD2D3
Encoded date : UTC 2020-11-27 14:50:08
Writing application : mkvmerge v10.0.0 ('To Drown In You') 32bit
Writing library : libebml v1.3.4 + libmatroska v1.4.5
Attachments : poster

Video
ID : 1
Format : HEVC
Format/Info : High Efficiency Video Coding
Format profile : Main 10@L4.1@Main
Codec ID : V_MPEGH/ISO/HEVC
Duration : 1 h 47 min
Bit rate : 4 503 kb/s
Width : 1 920 pixels
Height : 1 040 pixels
Display aspect ratio : 1.85:1
Frame rate mode : Constant
Frame rate : 59.940 (60000/1001) FPS
Color space : YUV
Chroma subsampling : 4:2:0
Bit depth : 10 bits
Bits/(Pixel*Frame) : 0.038
Stream size : 3.40 GiB (85%)
Writing library : x265 2.3+33-0b7d54dbb71a87a0:[Windows][MSVC 1800][64 bit] 10bit: KG7x [x265.ru]
Encoding settings : cpuid=1173503 / frame-threads=2 / numa-pools=4 / wpp / no-pmode / no-pme / no-psnr / no-ssim / log-level=2 / input-csp=1 / input-res=1920x1040 / interlace=0 / total-frames=388368 / level-idc=41 / high-tier=1 / uhd-bd=0 / ref=3 / no-allow-non-conformance / no-repeat-headers / annexb / no-aud / no-hrd / info / hash=0 / no-temporal-layers / open-gop / min-keyint=25 / keyint=250 / bframes=4 / b-adapt=2 / b-pyramid / bframe-bias=0 / rc-lookahead=20 / lookahead-slices=6 / scenecut=40 / no-intra-refresh / ctu=64 / min-cu-size=8 / no-rect / no-amp / max-tu-size=32 / tu-inter-depth=1 / tu-intra-depth=1 / limit-tu=0 / rdoq-level=0 / dynamic-rd=0.00 / no-ssim-rd / signhide / no-tskip / nr-intra=0 / nr-inter=0 / no-constrained-intra / strong-intra-smoothing / max-merge=2 / limit-refs=3 / no-limit-modes / me=1 / subme=2 / merange=57 / temporal-mvp / weightp / no-weightb / no-analyze-src-pics / deblock=0:0 / sao / no-sao-non-deblock / rd=3 / no-early-skip / rskip / no-fast-intra / no-tskip-fast / no-cu-lossless / no-b-intra / rdpenalty=0 / psy-rd=2.00 / psy-rdoq=0.00 / no-rd-refine / analysis-mode=0 / no-lossless / cbqpoffs=0 / crqpoffs=0 / rc=abr / bitrate=4500 / qcomp=0.60 / qpstep=4 / stats-write=0 / stats-read=2 / cplxblur=20.0 / qblur=0.5 / ipratio=1.40 / pbratio=1.30 / aq-mode=1 / aq-strength=1.00 / cutree / zone-count=0 / no-strict-cbr / qg-size=32 / no-rc-grain / qpmax=69 / qpmin=0 / sar=1 / overscan=0 / videoformat=5 / range=0 / colorprim=2 / transfer=2 / colormatrix=2 / chromaloc=0 / display-window=0 / max-cll=0,0 / min-luma=0 / max-luma=1023 / log2-max-poc-lsb=8 / vui-timing-info / vui-hrd-info / slices=1 / opt-qp-pps / opt-ref-list-length-pps / no-multi-pass-opt-rps / scenecut-bias=0.05 / no-opt-cu-delta-qp / no-aq-motion / no-hdr / no-hdr-opt / refine-level=5 / no-limit-sao
Default : Yes
Forced : No

Audio
ID : 2
Format : DTS
Format/Info : Digital Theater Systems
Codec ID : A_DTS
Duration : 1 h 47 min
Bit rate mode : Constant
Bit rate : 768 kb/s
Channel(s) : 6 channels
Channel layout : C L R Ls Rs LFE
Sampling rate : 48.0 kHz
Frame rate : 93.750 FPS (512 SPF)
Bit depth : 24 bits
Compression mode : Lossy
Stream size : 593 MiB (15%)
Language : Russian
Default : Yes
Forced : No


скриншот   скриншот   скриншот  


Назад в будущее 3 - Back to the Future Part 3«Лучшее путешествие они оставили напоследок... Но в этот раз они зашли слишком далеко.»

Год выпуска: 1990
Страна: США
Жанр: фантастика, боевик, комедия, приключения, вестерн

Продолжительность: 01:58:17
Перевод: Дубляж
Субтитры: русские

Режиссер: Роберт Земекис

В ролях: Майкл Дж. Фокс, Кристофер Ллойд, Мэри Стинберген, Томас Ф. Уилсон, Лиа Томпсон, Элизабет Шу, Мэтт Кларк, Ричард А. Дайсарт, Пэт Баттрем, Гарри Кэри мл.

Описание:
Из газет 1955 года Марти узнает, что доктор Браун погиб еще сто лет назад. Несмотря на просьбы Дока не навещать его в XIX веке, Марти вновь хочет вмешаться в ход событий и на машине времени уносится в 1885 год, навстречу Дикому Западу.
Это путешествие, как и все прежние, не обходится без опасных приключений, но смелый Марти, рискуя жизнью, предотвращает трагедию в жизни Эммета Брауна. Тот, в свою очередь, без памяти влюбляется в очаровательную незнакомку, которую спасает от гибели, и поездка домой — в будущее — теряет для него всякий смысл…

Мировая премьера: 25 мая 1990


Качество: BDRip 1080p by DD2D3
Формат: MKV
Видео кодек: V_MPEGH/ISO/HEVC
Аудио кодек: DTS
Видео: V_MPEGH/ISO/HEVC; 1920x1040 (1.85:1); 5001 Kbps; 59,940 fps; 0,042 bpp
Аудио: русский; DTS; 768 Kbps; CBR; 6 ch; 24 bit
Навигация по главам: нет



General
Unique ID : 197280977529203931215799258637208901860 (0x946AEF2843E2FEF98B0664817A5BD8E4)
Complete name : D:\Back to the Future Trilogy (1985-1990) BDRip - HEVC 1080p 10 bit 60 FPS\Back to the Future Part III (1990) BDRip - HEVC 1080p 10 bit 60 FPS .mkv
Format : Matroska
Format version : Version 4
File size : 4.77 GiB
Duration : 1 h 58 min
Overall bit rate : 5 776 kb/s
Movie name : Rip by from DD2D3
Encoded date : UTC 2020-11-27 15:10:53
Writing application : mkvmerge v10.0.0 ('To Drown In You') 32bit
Writing library : libebml v1.3.4 + libmatroska v1.4.5
Attachments : poster

Video
ID : 1
Format : HEVC
Format/Info : High Efficiency Video Coding
Format profile : Main 10@L4.1@Main
Codec ID : V_MPEGH/ISO/HEVC
Duration : 1 h 58 min
Bit rate : 5 002 kb/s
Width : 1 920 pixels
Height : 1 040 pixels
Display aspect ratio : 1.85:1
Frame rate mode : Constant
Frame rate : 59.940 (60000/1001) FPS
Color space : YUV
Chroma subsampling : 4:2:0
Bit depth : 10 bits
Bits/(Pixel*Frame) : 0.042
Stream size : 4.13 GiB (87%)
Writing library : x265 2.3+33-0b7d54dbb71a87a0:[Windows][MSVC 1800][64 bit] 10bit: KG7x [x265.ru]
Encoding settings : cpuid=1173503 / frame-threads=2 / numa-pools=4 / wpp / no-pmode / no-pme / no-psnr / no-ssim / log-level=2 / input-csp=1 / input-res=1920x1040 / interlace=0 / total-frames=425431 / level-idc=41 / high-tier=1 / uhd-bd=0 / ref=3 / no-allow-non-conformance / no-repeat-headers / annexb / no-aud / no-hrd / info / hash=0 / no-temporal-layers / open-gop / min-keyint=25 / keyint=250 / bframes=4 / b-adapt=2 / b-pyramid / bframe-bias=0 / rc-lookahead=20 / lookahead-slices=6 / scenecut=40 / no-intra-refresh / ctu=64 / min-cu-size=8 / no-rect / no-amp / max-tu-size=32 / tu-inter-depth=1 / tu-intra-depth=1 / limit-tu=0 / rdoq-level=0 / dynamic-rd=0.00 / no-ssim-rd / signhide / no-tskip / nr-intra=0 / nr-inter=0 / no-constrained-intra / strong-intra-smoothing / max-merge=2 / limit-refs=3 / no-limit-modes / me=1 / subme=2 / merange=57 / temporal-mvp / weightp / no-weightb / no-analyze-src-pics / deblock=0:0 / sao / no-sao-non-deblock / rd=3 / no-early-skip / rskip / no-fast-intra / no-tskip-fast / no-cu-lossless / no-b-intra / rdpenalty=0 / psy-rd=2.00 / psy-rdoq=0.00 / no-rd-refine / analysis-mode=0 / no-lossless / cbqpoffs=0 / crqpoffs=0 / rc=abr / bitrate=5000 / qcomp=0.60 / qpstep=4 / stats-write=0 / stats-read=2 / cplxblur=20.0 / qblur=0.5 / ipratio=1.40 / pbratio=1.30 / aq-mode=1 / aq-strength=1.00 / cutree / zone-count=0 / no-strict-cbr / qg-size=32 / no-rc-grain / qpmax=69 / qpmin=0 / sar=1 / overscan=0 / videoformat=5 / range=0 / colorprim=2 / transfer=2 / colormatrix=2 / chromaloc=0 / display-window=0 / max-cll=0,0 / min-luma=0 / max-luma=1023 / log2-max-poc-lsb=8 / vui-timing-info / vui-hrd-info / slices=1 / opt-qp-pps / opt-ref-list-length-pps / no-multi-pass-opt-rps / scenecut-bias=0.05 / no-opt-cu-delta-qp / no-aq-motion / no-hdr / no-hdr-opt / refine-level=5 / no-limit-sao
Default : Yes
Forced : No

Audio
ID : 2
Format : DTS
Format/Info : Digital Theater Systems
Codec ID : A_DTS
Duration : 1 h 58 min
Bit rate mode : Constant
Bit rate : 768 kb/s
Channel(s) : 6 channels
Channel layout : C L R Ls Rs LFE
Sampling rate : 48.0 kHz
Frame rate : 93.750 FPS (512 SPF)
Bit depth : 24 bits
Compression mode : Lossy
Stream size : 650 MiB (13%)
Language : Russian
Default : Yes
Forced : No


скриншот   скриншот   скриншот  


pb.wtf



Скачать Назад в будущее: Трилогия через торрент https://funkyimg.com/i/38XbJ.jpg Скачать, смотреть онлайн Назад в будущее: Трилогия бесплантно в хорошем качестве Описание: Подросток Марти с помощью машины времени, сооруженной его другом профессором доком Брауном, попадает из 80-х в далекие 50-е. Там ... 10 10 3
Info! Золотая раздача, скачанное не засчитывается.
Торрент: Зарегистрирован [2020-11-27 17:18] · скачан: 56 раз
Статус: √ проверено
Размер: 13.26 GB
Как cкачать? Как скачать Назад в будущее: Трилогия через торрент | UTorrent

% Раздел Тема Автор DL S | L
Сборники (HD Video) [ 51.5 GB ] Назад в будущее: Трилогия / Back to the Future: Trilogy [1985-1990 BDRip-HEVC 1080p] DUB + MVO + DVO + AVO + VO | Remastered RealOldGamer Скачать
2 | 0
Сборники и Сиквелы (48-60 fps) [ 13.66 GB ] Назад в будущее: Трилогия / Back to the Future Trilogy [1985 1989 1990 BDRip 720p / 60fps ] от R.G. HD-Films slaventi-69 Скачать
1 | 0
Сборники (HD Video) [ 20.7 GB ] Назад в будущее: Трилогия / Back to the Future: Trilogy [1985 1989 1990 BDRip 720p] akcent Скачать
1 | 0
Сборники на DVD и Сиквелы [DVDrip, WEB-DLRip, HDrip, BDRip] [ 4.34 GB ] Назад в будущее: Трилогия / Back to the Future: Trilogy [1985 1989 1990 HDRip-AVC] DUB / от R.G. nICE Films Demonessa Скачать
1 | 0

28-11-2019 20:33  

Отключить всю рекламу на сайте

28-11-2020 21:51 Назад в будущее: Трилогия Скачать торрент  

Супер!!! Вот это подарок!!! gift
Большое Спасибо dd2d3!
Редкость особенно для 60FPS! fireworks
Отличное качество/размер/разрешение! Просто

Помогу с раздачей! muscle
Грядёт обновление моей коллекции! yes

*Остальные раздачи Джон Уик трилогия, Комиксы Marvel - Marvel Comics, зависит от изменений, но уже предварительно оставлю старые и переключусь на раздачу новых, таков путь. pb.wtf



05-08-2021 14:23 Назад в будущее: Трилогия Скачать торрент  

Метрвая раздачаpb.wtf



    Дорогой пользователь! Огромная просьба, поблагодарите релизера, оцените раздачу и оставьте свои комментарий, если Вы скачали Назад в будущее: Трилогия через торрент бесплатно!
    Комментировать посты могут только пользователи прошедшие не сложную регистрацию
    Показать сообщения:    

    Назад в будущее: Трилогия через торрент
    Скачать бесплатно Назад в будущее: Трилогия
    Назад в будущее: Трилогия скачать торрент
    Назад в будущее: Трилогия смотреть онлайн
    Cкачать фильм Назад в будущее: Трилогия бесплатно
    Назад в будущее: Трилогия скачать торрент в хорошем качестве
    Назад в будущее: Трилогия смотреть онлайн бесплатно в хорошем качестве


    Вы не можете начинать темы
    Вы не можете отвечать на сообщения
    Вы не можете редактировать свои сообщения
    Вы не можете удалять свои сообщения
    Вы не можете голосовать в опросах
    Вы не можете прикреплять файлы к сообщениям
    Вы можете скачивать файлы