2 сезон

iTunes

MVO

1

2 сезон

iTunes

iTunes

1 сезон

RePack

30

Ultimate

ВАЖНО

ИГРА 18+

pack

RePack

MK11
pack

Легкие деньги

RePack

jed

RePack

fifa19

RePack

RDR2

RePack

NEED FOR SPEED™ PAYBACK

4 сезон

9 сезон

Бесстыжие 9 сезон

Все сериалы

все сериалы на PB.wtf

RePack

FAR CRY 5

Anonymous, добрый день, мы не успеваем собрать деньги на оплату серверов за декабрь и январь, помогите нам пожалуйста в это трудное время. В качестве благодарности мы отключим Вам всю рекламу на сайте (укажите свой ник в строку Ваше имя)!

×
  
Magnet ссылка

Гемини в 3D / Gemini Man in 3D (Энг Ли) [2019 г., боевик, фантастика, BDRip 1080p, Дубляж Лицензия] Анаглиф (Дюбуа) от R.G. HD-Films pb.wtf

Гемини в 3D через торрент pb.wtf

Размер: 7.31 GB | Добавлен: 1 мес. 24 д. назад | Торрент скачан:7 раз
Скачать  

28-11-2020 11:38 Гемини в 3D Скачать торрент  

Гемини в 3D / Gemini Man in 3D
Год выпуска: 2019
Страна: США, Китай
Жанр: боевик, фантастика
Продолжительность: 01:57:01
Перевод: Дубляж Лицензия
Субтитры: русские , украинские , английские

Режиссер: Энг Ли

Бюджет: $138 000 000
Премьера в мире: 25 сентября 2019

rating

В ролях: Уилл Смит, Мэри Элизабет Уинстэд, Клайв Оуэн, Бенедикт Вонг, Дуглас Ходж, Теодора Вулли, Ральф Браун, Линда Эмонд, Андреа Суч, Илья Волох, Дэвид Моретти, Илона МакКри, Э.Дж. Бонилья, Виктор Хьюго

Описание: Генри Броган всю свою жизнь зарабатывал тем, что убивал людей. Он высококвалифицированный киллер, который не раз помогал правительству Соединенных Штатов Америки. Только вот настал день, когда и его приказали устранить. Но не так-то просто убить человека, который об этом ремесле знает больше кого-либо другого. Поэтому для этого задания отправили идеального бойца. Он знает Генри лучше других – ведь это сам Броган, вернее его более молодая копия. Каждое движение, каждая мысль, которые приходят к Генри, приходят и к его двойнику. Что победит в этой схватке: молодость и сила или возраст и опыт?

Доп. информация: Формат 3D: Анаглиф (Дюбуа)



Качество: BDRip 1080p
Формат: MKV
Видео кодек: H.264
Аудио кодек: AC3
Видео: AVC, 1920 x 1080 (16:9), 7 272 kbps, 23,976 fps, 0.146 bpp
Аудио#1: Русский / AC3 / 48 KHz / 5.1 ch / 640 Kbps (Дубляж - BD Eur)
Аудио#2: Украинский / AC3 / 48 KHz / 5.1 ch / 384 Kbps (Дубляж - iTunes)
Аудио#3: Английский / AC3 / 48 KHz / 5.1 ch / 640 Kbps (Original - BD 3D Ger)
Автор рипа: slaventi-69
x264 [info]: frame I:992 Avg QP:13.80 size:200635
x264 [info]: frame P:41310 Avg QP:15.24 size: 76198
x264 [info]: frame B:126032 Avg QP:16.68 size: 24085
x264 [info]: consecutive B-frames: 3.1% 3.9% 13.9% 19.5% 19.5% 40.1%

Общее
Уникальный идентификатор : 53291656991800325352458852028031549348 (0x2817998C678B3BB720D7E40609E9BFA4)
Полное имя : E:\Temp\Заказ\GeminiMan(2019)3D.(Anaglyph_Dubois).mkv
Формат : Matroska
Версия формата : Version 4
Размер файла : 7,31 Гбайт
Продолжительность : 1 ч. 57 м.
Общий поток : 8 939 Кбит/сек
Название фильма : Гемини / Gemini Man (2019) in 3D (Anaglyph_Dubois)
Дата кодирования : UTC 2020-11-28 10:03:58
Программа кодирования : mkvmerge v35.0.0 ('All The Love In The World') 64-bit
Библиотека кодирования : libebml v1.3.9 + libmatroska v1.5.2

Видео
Идентификатор : 1
Формат : AVC
Формат/Информация : Advanced Video Codec
Профиль формата : High@L4.1
Настройки формата : CABAC / 4 Ref Frames
Параметр CABAC формата : Да
Параметр RefFrames формата : 4 кадра
Идентификатор кодека : V_MPEG4/ISO/AVC
Продолжительность : 1 ч. 57 м.
Битрейт : 7 272 Кбит/сек
Ширина : 1 920 пикселей
Высота : 1 080 пикселей
Соотношение сторон : 16:9
Режим частоты кадров : Постоянный
Частота кадров : 23,976 кадра/сек
Цветовое пространство : YUV
Субдискретизация насыщенности : 4:2:0
Битовая глубина : 8 бит
Тип развёртки : Прогрессивная
Бит/(Пиксели*Кадры) : 0.146
Размер потока : 5,94 Гбайт (81%)
Заголовок : slaventi-69 ( R.G. HD-Films ) 3Д (Anaglyph_Dubois)
Библиотека кодирования : x264 core 130 r2273 b3065e6
Настройки программы : cabac=1 / ref=4 / deblock=1:0:0 / analyse=0x3:0x113 / me=umh / subme=9 / psy=1 / psy_rd=1.00:0.00 / mixed_ref=1 / me_range=32 / chroma_me=1 / trellis=2 / 8x8dct=1 / cqm=0 / deadzone=21,11 / fast_pskip=1 / chroma_qp_offset=-2 / threads=10 / lookahead_threads=4 / sliced_threads=0 / nr=0 / decimate=1 / interlaced=0 / bluray_compat=0 / constrained_intra=0 / bframes=5 / b_pyramid=2 / b_adapt=2 / b_bias=0 / direct=1 / weightb=1 / open_gop=0 / weightp=2 / keyint=600 / keyint_min=23 / scenecut=40 / intra_refresh=0 / rc=crf / mbtree=0 / crf=18.7 / qcomp=0.60 / qpmin=0 / qpmax=69 / qpstep=4 / ip_ratio=1.40 / pb_ratio=1.30 / aq=1:1.00
Язык : English
Default : Да
Forced : Нет

Аудио #1
Идентификатор : 2
Формат : AC-3
Формат/Информация : Audio Coding 3
Коммерческое название : Dolby Digital
Идентификатор кодека : A_AC3
Продолжительность : 1 ч. 57 м.
Вид битрейта : Постоянный
Битрейт : 640 Кбит/сек
Каналы : 6 каналов
Channel layout : L R C LFE Ls Rs
Частота : 48,0 КГц
Частота кадров : 31,250 кадров/сек (1536 SPF)
Метод сжатия : С потерями
Размер потока : 536 Мбайт (7%)
Заголовок : Дубляж (BD Eur)
Язык : Russian
Service kind : Complete Main
Default : Да
Forced : Нет

Аудио #2
Идентификатор : 3
Формат : AC-3
Формат/Информация : Audio Coding 3
Коммерческое название : Dolby Digital
Идентификатор кодека : A_AC3
Продолжительность : 1 ч. 57 м.
Вид битрейта : Постоянный
Битрейт : 384 Кбит/сек
Каналы : 6 каналов
Channel layout : L R C LFE Ls Rs
Частота : 48,0 КГц
Частота кадров : 31,250 кадров/сек (1536 SPF)
Метод сжатия : С потерями
Размер потока : 321 Мбайт (4%)
Заголовок : Дубляж (iTunes)
Язык : Ukrainian
Service kind : Complete Main
Default : Нет
Forced : Нет

Аудио #3
Идентификатор : 4
Формат : AC-3
Формат/Информация : Audio Coding 3
Коммерческое название : Dolby Digital
Идентификатор кодека : A_AC3
Продолжительность : 1 ч. 57 м.
Вид битрейта : Постоянный
Битрейт : 640 Кбит/сек
Каналы : 6 каналов
Channel layout : L R C LFE Ls Rs
Частота : 48,0 КГц
Частота кадров : 31,250 кадров/сек (1536 SPF)
Метод сжатия : С потерями
Размер потока : 536 Мбайт (7%)
Заголовок : Original (BD 3D Ger)
Язык : English
Service kind : Complete Main
Default : Нет
Forced : Нет

Текст #1
Идентификатор : 5
Формат : UTF-8
Идентификатор кодека : S_TEXT/UTF8
Идентификатор кодека/Информация : UTF-8 Plain Text
Продолжительность : 1 ч. 47 м.
Битрейт : 0 бит/сек
Count of elements : 15
Размер потока : 576 байт (0%)
Заголовок : Форсированные
Язык : Russian
Default : Да
Forced : Нет

Текст #2
Идентификатор : 6
Формат : UTF-8
Идентификатор кодека : S_TEXT/UTF8
Идентификатор кодека/Информация : UTF-8 Plain Text
Продолжительность : 1 ч. 55 м.
Битрейт : 69 бит/сек
Count of elements : 1336
Размер потока : 59,1 Кбайт (0%)
Заголовок : Полные
Язык : Russian
Default : Нет
Forced : Нет

Текст #3
Идентификатор : 7
Формат : UTF-8
Идентификатор кодека : S_TEXT/UTF8
Идентификатор кодека/Информация : UTF-8 Plain Text
Продолжительность : 1 ч. 47 м.
Битрейт : 0 бит/сек
Count of elements : 15
Размер потока : 646 байт (0%)
Заголовок : Форсированные
Язык : Ukrainian
Default : Нет
Forced : Нет

Текст #4
Идентификатор : 8
Формат : UTF-8
Идентификатор кодека : S_TEXT/UTF8
Идентификатор кодека/Информация : UTF-8 Plain Text
Продолжительность : 1 ч. 47 м.
Битрейт : 74 бит/сек
Count of elements : 1336
Размер потока : 58,7 Кбайт (0%)
Заголовок : Полные
Язык : Ukrainian
Default : Нет
Forced : Нет

Текст #5
Идентификатор : 9
Формат : UTF-8
Идентификатор кодека : S_TEXT/UTF8
Идентификатор кодека/Информация : UTF-8 Plain Text
Продолжительность : 1 ч. 45 м.
Битрейт : 50 бит/сек
Count of elements : 1356
Размер потока : 38,6 Кбайт (0%)
Заголовок : Full
Язык : English
Default : Нет
Forced : Нет

Меню
00:00:00.000 : :1
00:07:21.650 : :2
00:15:31.681 : :3
00:18:13.134 : :4
00:24:39.520 : :5
00:30:59.441 : :6
00:34:09.464 : :7
00:42:40.308 : :8
00:50:24.897 : :9
00:56:45.819 : :10
01:03:30.306 : :11
01:08:13.172 : :12
01:16:45.935 : :13
01:24:43.996 : :14
01:30:04.733 : :15
01:34:00.927 : :16
01:42:14.462 : :17
01:47:07.588 : :18

Просьба к переливающим на другие сайты, в оформлении указывайте пожалуйста авторство группы R.G. HD-Filmspb.wtf



Скачать Гемини в 3D через торрент https://a.radikal.ru/a27/2002/68/6194b5fb6655.png Скачать фильм Гемини в 3D через торрент бесплантно в хорошем качестве Описание: Генри Броган всю свою жизнь зарабатывал тем, что убивал людей. Он высококвалифицированный киллер, который не раз помогал ... 7 10 3
Торрент: Зарегистрирован [2020-11-28 11:38] · скачан: 7 раз
Статус: √ проверено
Размер: 7.31 GB
Как cкачать? Как скачать Гемини в 3D через торрент | UTorrent

% Раздел Тема Автор DL S | L
3D Видео (48-60 fps) [ 4.88 GB ] Гемини в 3D / Gemini Man in 3D [2019 BDRip 720p / 60 FPS ] Анаглиф от R.G. HD-Films slaventi-69 Скачать
1 | 0

28-11-2019 20:33  

Отключить всю рекламу на сайте

28-11-2020 11:55 Гемини в 3D Скачать торрент  

А что рип не сделали в 60fps есть же исходники или образ был 30-ти кадровый?pb.wtf



28-11-2020 12:49 Гемини в 3D Скачать торрент  

Ressident писал(а):

А что рип не сделали в 60fps есть же исходники или образ был 30-ти кадровый?

С начала так, позже в 60 fps думаю сделать. Надеюсь Вам не надо рассказывать сколько кодируется, поэтому все постепенно.pb.wtf



    Дорогой пользователь! Огромная просьба, поблагодарите релизера, оцените раздачу и оставьте свои комментарий, если Вы скачали Гемини в 3D через торрент бесплатно! Внесите свою лепту в развитие PiratBit!
    Комментировать посты могут только пользователи прошедшие не сложную регистрацию
    Показать сообщения:    

    Гемини в 3D через торрент
    Скачать бесплатно Гемини в 3D
    Гемини в 3D скачать торрент
    Гемини в 3D смотреть онлайн
    Cкачать фильм Гемини в 3D бесплатно
    Гемини в 3D скачать торрент в хорошем качестве
    Гемини в 3D смотреть онлайн бесплатно в хорошем качестве


    Вы не можете начинать темы
    Вы не можете отвечать на сообщения
    Вы не можете редактировать свои сообщения
    Вы не можете удалять свои сообщения
    Вы не можете голосовать в опросах
    Вы не можете прикреплять файлы к сообщениям
    Вы можете скачивать файлы