1 сезон

1 сезон

iTunes

1

iTunes

Кинопоиск HD

iTunes

13

1 сезон

RePack

30

Deluxe

ВАЖНО

ИГРА 18+

pack

RePack

MK11
pack

Легкие деньги

RePack

jed

RePack

fifa19

RePack

RDR2

RePack

NEED FOR SPEED™ PAYBACK

4 сезон

9 сезон

Бесстыжие 9 сезон

Все сериалы

все сериалы на PB.wtf

RePack

FAR CRY 5
  
Magnet ссылка

Плохая компания / Bad Company (Роберт Бентон) [1972, драма, вестерн, WEBRip 1080p] 2x [MVO] pb.wtf

Плохая компания через торрент pb.wtf

Размер: 9.67 GB | Добавлен: 5 мес. 16 д. назад | Торрент скачан:1 раз
Скачать  

28-11-2020 15:41 Плохая компания Скачать торрент  

Плохая компания / Bad Company

Год выпуска: 1972
Страна: США
Студия: Jaffilms, Paramount Pictures
Жанр: драма, вестерн
Продолжительность: 01:32:37
Перевод 1: Профессиональный (многоголосый закадровый)
Перевод 2: Профессиональный (многоголосый закадровый)
Субтитры: русские, английские

Режиссер: Роберт Бентон / Robert Benton

В ролях: Джефф Бриджес, Бэрри Браун, Джим Дэвис, Дэвид Хаддлстон, Джон Сэвэдж, Джерри Хаузер, Дэймон Кофер, Джошуа Хилл Льюис, Джеффри Льюис, Рэймонд Гут др.

Описание: Главные герои – Дрю и Джейк, постепенно понимают, что романтичная жизнь бродяг не так сладка и безмятежна, какой представляется.
На пути их поджидают лишения, насилие, предательство и много неприятных знакомств с мошенниками и ренегатами. Дорога преподаст друзьям много жизненных уроков, которые помогут им стать взрослее и мудрее.
rating

Сэмпл

Тип релиза: WEBRip 1080p (Bad.Company.1972.1080p.WEBRip.DD2.0.x264-NTb)
Контейнер: MKV

Видео: AVC / 1920x1080 / 16:9 / 23.976 fps / 14300 Kbps / High@L4
Аудио 1 Rus: AC3 / 48.0 KHz / 2.0 / 192 kbps / MVO
Аудио 2 Rus: AC3 / 48.0 KHz / 2.0 / 192 kbps / MVO
Аудио 3 Eng: E-AC3 / 48.0 KHz / 2.0 / 224 kbps
Формат субтитров: softsub (SRT)
General
Unique ID : 323562202405621349083191510668729219490 (0xF36BD03E28F8979D891EC9B51ED979A2)
Complete name : E:\porvaliparus 2020\Bad.Company.1972 WEBRip.1080p.mkv
Format : Matroska
Format version : Version 4 / Version 2
File size : 9.67 GiB
Duration : 1 h 32 min
Overall bit rate mode : Variable
Overall bit rate : 14.9 Mb/s
Movie name : Bad.Company.1972.WEBRip.1080p-porvaliparus
Encoded date : UTC 2020-11-25 02:15:37
Writing application : mkvmerge v51.0.0 ('I Wish') 64-bit
Writing library : libebml v1.4.0 + libmatroska v1.6.2

Video
ID : 1
Format : AVC
Format/Info : Advanced Video Codec
Format profile : High@L4
Format settings, CABAC : Yes
Format settings, ReFrames : 4 frames
Codec ID : V_MPEG4/ISO/AVC
Duration : 1 h 32 min
Bit rate mode : Variable
Bit rate : 14.3 Mb/s
Maximum bit rate : 15.0 Mb/s
Width : 1 920 pixels
Height : 1 080 pixels
Display aspect ratio : 16:9
Frame rate mode : Constant
Frame rate : 23.976 (24000/1001) FPS
Color space : YUV
Chroma subsampling : 4:2:0
Bit depth : 8 bits
Scan type : Progressive
Bits/(Pixel*Frame) : 0.288
Stream size : 9.27 GiB (96%)
Title : Bad.Company.1972.WEBRip.1080p
Writing library : x264 core 148 r2623 d5b2374
Encoding settings : cabac=1 / ref=4 / deblock=1:-1:-1 / analyse=0x3:0x133 / me=umh / subme=9 / psy=1 / psy_rd=1.00:0.15 / mixed_ref=1 / me_range=24 / chroma_me=1 / trellis=2 / 8x8dct=1 / cqm=0 / deadzone=21,11 / fast_pskip=1 / chroma_qp_offset=-3 / threads=34 / lookahead_threads=5 / sliced_threads=0 / nr=150 / decimate=1 / interlaced=0 / bluray_compat=0 / constrained_intra=0 / bframes=8 / b_pyramid=2 / b_adapt=2 / b_bias=0 / direct=3 / weightb=1 / open_gop=0 / weightp=2 / keyint=120 / keyint_min=61 / scenecut=0 / intra_refresh=0 / rc_lookahead=120 / rc=crf / mbtree=1 / crf=18.0 / qcomp=0.60 / qpmin=0 / qpmax=69 / qpstep=4 / vbv_maxrate=15000 / vbv_bufsize=31250 / crf_max=0.0 / nal_hrd=vbr / filler=0 / ip_ratio=1.40 / aq=3:1.00
Default : Yes
Forced : No
Color range : Limited
Color primaries : BT.709
Transfer characteristics : BT.709
Matrix coefficients : BT.709

Audio #1
ID : 2
Format : AC-3
Format/Info : Audio Coding 3
Format settings, Endianness : Big
Codec ID : A_AC3
Duration : 1 h 32 min
Bit rate mode : Constant
Bit rate : 192 kb/s
Channel(s) : 2 channels
Channel positions : Front: L R
Sampling rate : 48.0 kHz
Frame rate : 31.250 FPS (1536 spf)
Bit depth : 16 bits
Compression mode : Lossy
Stream size : 127 MiB (1%)
Title : MVO
Language : Russian
Service kind : Complete Main
Default : Yes
Forced : No

Audio #2
ID : 3
Format : AC-3
Format/Info : Audio Coding 3
Format settings, Endianness : Big
Codec ID : A_AC3
Duration : 1 h 32 min
Bit rate mode : Constant
Bit rate : 192 kb/s
Channel(s) : 2 channels
Channel positions : Front: L R
Sampling rate : 48.0 kHz
Frame rate : 31.250 FPS (1536 spf)
Bit depth : 16 bits
Compression mode : Lossy
Stream size : 127 MiB (1%)
Title : MVO
Language : Russian
Service kind : Complete Main
Default : No
Forced : No

Audio #3
ID : 4
Format : E-AC-3
Format/Info : Enhanced Audio Coding 3
Format settings, Endianness : Big
Codec ID : A_EAC3
Duration : 1 h 32 min
Bit rate mode : Constant
Bit rate : 224 kb/s
Channel(s) : 2 channels
Channel positions : Front: L R
Sampling rate : 48.0 kHz
Frame rate : 187.500 FPS (256 spf)
Compression mode : Lossy
Stream size : 148 MiB (1%)
Language : English
Service kind : Complete Main
Default : No
Forced : No

Text #1
ID : 5
Format : UTF-8
Codec ID : S_TEXT/UTF8
Codec ID/Info : UTF-8 Plain Text
Duration : 1 h 30 min
Bit rate : 84 b/s
Count of elements : 1074
Stream size : 55.9 KiB (0%)
Language : Russian
Default : No
Forced : No

Text #2
ID : 6
Format : UTF-8
Codec ID : S_TEXT/UTF8
Codec ID/Info : UTF-8 Plain Text
Duration : 1 h 31 min
Bit rate : 63 b/s
Count of elements : 1190
Stream size : 42.3 KiB (0%)
Language : English
Default : No
Forced : No

Menu
00:00:00.000 : en:Глава 01
00:11:01.452 : en:Глава 02
00:23:05.758 : en:Глава 03
00:33:39.015 : en:Глава 04
00:45:55.793 : en:Глава 05
00:57:15.471 : en:Глава 06
01:09:12.103 : en:Глава 07
01:20:12.012 : en:Глава 08
скриншот  скриншот  скриншот  
pb.wtf



Скачать Плохая компания через торрент https://i114.fastpic.ru/big/2020/1125/d1/55a1340ad8f4d369bbcbbe4b6815d4d1.png Скачать фильм Плохая компания через торрент бесплантно в хорошем качестве Описание: Главные герои – Дрю и Джейк, постепенно понимают, что романтичная жизнь бродяг не так сладка и безмятежна, какой ... 10 10 1
Info! Золотая раздача, скачанное не засчитывается.
Торрент: Зарегистрирован [2020-11-28 15:41] · скачан: 1 раз
Статус: √ проверено
Размер: 9.67 GB
Как cкачать? Как скачать Плохая компания через торрент | UTorrent

% Раздел Тема Автор DL S | L
T Фильмы (мультфильмы) cо спонсором показа (Новинки AVI/MKV) [ 1.37 GB ] Плохая компания / Bad Company [2018 WEB-DLRip] MVO ["Синема УС"] bober100 Скачать
2 | 0
T Фильмы (мультфильмы) cо спонсором показа (Новинки AVI/MKV) [ 3.77 GB ] Плохая компания / Bad Company [2018 WEB-DL 720p] MVO ["Синема УС"] bober100 Скачать
1 | 0
Фильмы [HD 720p, 1080p] (Хороший звук DUB, MVO) [ 11.62 GB ] Плохая компания / Bad Company [1995 BDRip 1080p by msltel] MVO AVO msltel Скачать
1 | 0
Фильмы [HD 720p, 1080p] (Хороший звук DUB, MVO) [ 4.18 GB ] Плохая компания / Bad Company [1995 BDRip 720p by msltel] MVO AVO msltel Скачать
1 | 0
T Фильмы 2001-2005 [ 2.09 GB ] Плохая компания / Bad Company [2002 WEBRip] [Open Matte] [MVO] + + [AVO] killermax2013 Скачать
1 | 0
Фильмы (WEB-DL 720p, 1080p) [ 8.67 GB ] Плохая компания / Bad Company [2001 HDTVRip DUB лицензия] AlexKa Скачать
1 | 0
Фильмы 2001-2005 [ 2.14 GB ] Плохая компания / Bad Company [2002 DVDRip-AVC] Vito1 Скачать
1 | 0

28-11-2019 20:33  

Отключить всю рекламу на сайте

    Дорогой пользователь! Огромная просьба, поблагодарите релизера, оцените раздачу и оставьте свои комментарий, если Вы скачали Плохая компания через торрент бесплатно! Внесите свою лепту в развитие PiratBit!
    Комментировать посты могут только пользователи прошедшие не сложную регистрацию
    Показать сообщения:    

    Плохая компания через торрент
    Скачать бесплатно Плохая компания
    Плохая компания скачать торрент
    Плохая компания смотреть онлайн
    Cкачать фильм Плохая компания бесплатно
    Плохая компания скачать торрент в хорошем качестве
    Плохая компания смотреть онлайн бесплатно в хорошем качестве


    Вы не можете начинать темы
    Вы не можете отвечать на сообщения
    Вы не можете редактировать свои сообщения
    Вы не можете удалять свои сообщения
    Вы не можете голосовать в опросах
    Вы не можете прикреплять файлы к сообщениям
    Вы можете скачивать файлы