Anonymous, добрый день, присоединяйтесь к нам в Telegram!, здесь всегда актуальный адрес сайта, оперативная поддержка и многое другое!

>

5.5

iTunes

7.4

iTunes

7.9

iTunes

1

7.7

1 сезон

6.8

iTunes

7.3

1 сезон

13

6.7

1 сезон

8.3

RePack

30

ULTIMATE

pack

9.9

Лицензия

ВАЖНО

ИГРА 18+

pack

7.3

RePack

MK11

7.7

RePack

jed

7.8

RePack

fifa19

8.5

RePack

RDR2

RePack

NEED FOR SPEED™ PAYBACK

4 сезон

9 сезон

Бесстыжие 9 сезон

Все сериалы

все сериалы на PB.wtf

RePack

FAR CRY 5

Anonymous, добрый день, мы катастрофически не успеваем собрать деньги на оплату серверов, помогите нам пожалуйста 5,10,15р., для нас важна любая помощь . В качестве благодарности мы отключим Вам всю рекламу на сайте (укажите свой ник в строку Ваше имя)!

×
  
Magnet ссылка

Tрилогия Eastrail 177 - Eastrail 177 Trilogy (М. Найт Шьямалан) [2000 - 2019, фантастика, триллер, драма, детектив, ужасы, BDRip - HEVC 1080p 10 bit 60 FPS, DUB] pb.wtf

Tрилогия Eastrail 177 - Eastrail 177 Trilogy через торрент pb.wtf

Раздают: 1 [ 0 KB/s ]
Размер: 12.3 GB | Добавлен: 10 мес. назад | Торрент скачан:22 раза
Смотреть онлайн Tрилогия Eastrail 177 - Eastrail 177 Trilogy | Скачать    Ребята, помогите собрать деньги на оплату серверов!!!

29-11-2020 19:23 Tрилогия Eastrail 177 - Eastrail 177 Trilogy Скачать торрент  



«Неуязвимый» (англ. Unbreakable film series), также называется «Eastrail 177 Trilogy» — американская серия фильмов в жанре супергеройского кино и психологического триллера. Фильмы были сняты и спродюсированы режиссёром М. Найтом Шьямаланом по собственному сценарию. Трилогия состоит из фильмов Неуязвимый (2000), Сплит (2016) и Стекло (2019).

Во всех фильмах появляется Дэвид Данн. Работы Шьямалана отличаются от традиционных фильмов о супергероях. Некоторые называют франшизу «первой авторской общей супергеройской вселенной». Также это первая супергеройская франшиза, написанная и снятая одним человеком. Шьямалан отметил, что, хотя трилогия имеет отсылки к комиксам, она на самом деле является оригинальным проектом. Фильмы делают упор на реалистичность и рассматривается как деконструкция жанра супергероев. Трилогия, таким образом, считается уникальным взглядом на супергеройский жанр.

Режиссёр заявил, что фильмы из данной франшизы — это история происхождения людей с уникальными способностями, с намерением показать, что у каждого человека есть что-то особенное. «Сплит» был назван первым сольным рассказом о суперзлодее. Писатели и фанаты также назвали фильмы «трилогией Eastrail 177», потому что все три главных персонажа связаны с крушением поезда Eastrail №177 в первом фильме.


Неуязвимый - Unbreakable«Два полюса одной тайны»

Год выпуска: 2000
Страна: США
Жанр: фантастика, триллер, драма, детектив

Продолжительность: 01:46:39
Перевод: Дубляж
Субтитры: русские

Режиссер: М. Найт Шьямалан / M. Night Shyamalan

В ролях: Брюс Уиллис, Сэмюэл Л. Джексон, Робин Райт, Спенсер Трит Кларк, Чарлэйн Вудард, Имонн Уолкер, Лесли Стефансон, Джонни Хирам Джеймисон, Мишелия Кэрролл, Бостин Кристофер

Описание:
В 3:15 пополудни происходит страшная железнодорожная катастрофа. Из 132 пассажиров в живых остается только один. Дэйвид Данн не просто уцелел посреди мгновенного ада из железа и огня — он не получил ни одной царапины. И лишь один человек на земле знает причину этого чуда — Элайджа Прайс по прозвищу «Мистер Стекло», чьи кости могут сломаться даже от незначительного внешнего усилия…

Мировая премьера: 14 ноября 2000


Качество: BDRip 1080p by DD2D3
Формат: MKV
Видео кодек: V_MPEGH/ISO/HEVC
Аудио кодек: AC3
Видео: V_MPEGH/ISO/HEVC; 1920x816 (2.35:1); 4499 Kbps; 59,940 fps; 0,048 bpp
Аудио: русский; AC3; 640 Kbps; CBR; 6 ch
Навигация по главам: есть



General
Unique ID : 202025721065819571972735289715408607377 (0x97FCBD132AA3BD98B2AA339A0F7D9891)
Complete name : D:\Eastrail 177 Trilogy (2000-2019) BDRip - HEVC 1080p 10 bit 60 FPS\Unbreakable (2000) BDRip - HEVC 1080p 10 bit 60 FPS.mkv
Format : Matroska
Format version : Version 4
File size : 3.83 GiB
Duration : 1 h 46 min
Overall bit rate : 5 146 kb/s
Movie name : Rip by from DD2D3
Encoded date : UTC 2020-11-27 17:28:08
Writing application : mkvmerge v10.0.0 ('To Drown In You') 32bit
Writing library : libebml v1.3.4 + libmatroska v1.4.5
Attachments : poster

Video
ID : 1
Format : HEVC
Format/Info : High Efficiency Video Coding
Format profile : Main 10@L4.1@Main
Codec ID : V_MPEGH/ISO/HEVC
Duration : 1 h 46 min
Bit rate : 4 500 kb/s
Width : 1 920 pixels
Height : 816 pixels
Display aspect ratio : 2.35:1
Frame rate mode : Constant
Frame rate : 59.940 (60000/1001) FPS
Color space : YUV
Chroma subsampling : 4:2:0
Bit depth : 10 bits
Bits/(Pixel*Frame) : 0.048
Stream size : 3.35 GiB (87%)
Writing library : x265 2.3+33-0b7d54dbb71a87a0:[Windows][MSVC 1800][64 bit] 10bit: KG7x [x265.ru]
Encoding settings : cpuid=1173503 / frame-threads=2 / numa-pools=4 / wpp / no-pmode / no-pme / no-psnr / no-ssim / log-level=2 / input-csp=1 / input-res=1920x816 / interlace=0 / total-frames=383578 / level-idc=41 / high-tier=1 / uhd-bd=0 / ref=3 / no-allow-non-conformance / no-repeat-headers / annexb / no-aud / no-hrd / info / hash=0 / no-temporal-layers / open-gop / min-keyint=25 / keyint=250 / bframes=4 / b-adapt=2 / b-pyramid / bframe-bias=0 / rc-lookahead=20 / lookahead-slices=5 / scenecut=40 / no-intra-refresh / ctu=64 / min-cu-size=8 / no-rect / no-amp / max-tu-size=32 / tu-inter-depth=1 / tu-intra-depth=1 / limit-tu=0 / rdoq-level=0 / dynamic-rd=0.00 / no-ssim-rd / signhide / no-tskip / nr-intra=0 / nr-inter=0 / no-constrained-intra / strong-intra-smoothing / max-merge=2 / limit-refs=3 / no-limit-modes / me=1 / subme=2 / merange=57 / temporal-mvp / weightp / no-weightb / no-analyze-src-pics / deblock=0:0 / sao / no-sao-non-deblock / rd=3 / no-early-skip / rskip / no-fast-intra / no-tskip-fast / no-cu-lossless / no-b-intra / rdpenalty=0 / psy-rd=2.00 / psy-rdoq=0.00 / no-rd-refine / analysis-mode=0 / no-lossless / cbqpoffs=0 / crqpoffs=0 / rc=abr / bitrate=4500 / qcomp=0.60 / qpstep=4 / stats-write=0 / stats-read=2 / cplxblur=20.0 / qblur=0.5 / ipratio=1.40 / pbratio=1.30 / aq-mode=1 / aq-strength=1.00 / cutree / zone-count=0 / no-strict-cbr / qg-size=32 / no-rc-grain / qpmax=69 / qpmin=0 / sar=1 / overscan=0 / videoformat=5 / range=0 / colorprim=2 / transfer=2 / colormatrix=2 / chromaloc=0 / display-window=0 / max-cll=0,0 / min-luma=0 / max-luma=1023 / log2-max-poc-lsb=8 / vui-timing-info / vui-hrd-info / slices=1 / opt-qp-pps / opt-ref-list-length-pps / no-multi-pass-opt-rps / scenecut-bias=0.05 / no-opt-cu-delta-qp / no-aq-motion / no-hdr / no-hdr-opt / refine-level=5 / no-limit-sao
Default : Yes
Forced : No

Audio
ID : 2
Format : AC-3
Format/Info : Audio Coding 3
Commercial name : Dolby Digital
Codec ID : A_AC3
Duration : 1 h 46 min
Bit rate mode : Constant
Bit rate : 640 kb/s
Channel(s) : 6 channels
Channel layout : L R C LFE Ls Rs
Sampling rate : 48.0 kHz
Frame rate : 31.250 FPS (1536 SPF)
Compression mode : Lossy
Stream size : 488 MiB (12%)
Title : DUB
Language : Russian
Service kind : Complete Main
Default : Yes
Forced : No

Text
ID : 3
Format : UTF-8
Codec ID : S_TEXT/UTF8
Codec ID/Info : UTF-8 Plain Text
Duration : 1 h 45 min
Bit rate : 66 b/s
Count of elements : 965
Stream size : 51.9 KiB (0%)
Title : русские
Language : Russian
Default : No
Forced : No

Menu
00:00:00.000 : :Chapter 01
00:08:44.022 : :Chapter 02
00:09:50.673 : :Chapter 03
00:14:57.061 : :Chapter 04
00:16:30.948 : :Chapter 05
00:20:57.339 : :Chapter 06
00:25:04.920 : :Chapter 07
00:32:26.069 : :Chapter 08
00:34:37.158 : :Chapter 09
00:36:28.393 : :Chapter 10
00:40:55.703 : :Chapter 11
00:43:22.975 : :Chapter 12
00:49:59.036 : :Chapter 13
00:54:53.039 : :Chapter 14
00:56:57.414 : :Chapter 15
01:00:00.095 : :Chapter 16
01:02:51.392 : :Chapter 17
01:04:35.037 : :Chapter 18
01:07:37.261 : :Chapter 19
01:12:16.832 : :Chapter 20
01:13:28.445 : :Chapter 21
01:17:33.314 : :Chapter 22
01:22:19.684 : :Chapter 23
01:31:38.618 : :Chapter 24
01:33:13.587 : :Chapter 25
01:35:53.080 : :Chapter 26
01:37:49.988 : :Chapter 27
01:42:15.462 : :Chapter 28
01:46:37.390 : :Chapter 29
01:46:39.393 : :Chapter 30


скриншот   скриншот   скриншот   скриншот  


Сплит - Split«Внутри Кевина живут 23 личности. Вскоре еще одна явит себя миру»

Год выпуска: 2016
Страна: США, Япония
Жанр: Ужасы, триллер

Продолжительность: 01:57:07
Перевод: Дубляж
Субтитры: русские

Режиссер: М. Найт Шьямалан / M. Night Shyamalan

В ролях: Джеймс МакЭвой, Бетти Бакли, Иззи Коффи, Накия Диллард, Дэнн Финк, Кэш Гойнс, Розмари Ховард, Нил Хафф, Аня Тейлор-Джой

Описание:
Кевин — человек, в котором живет не менее двадцати трех личностей, вынужден похитить трех девушек подросткового возраста. Тем временем, пока они находятся в заточении, самая главная личность Кевина — Чудовище — материализуется

Мировая премьера: 26 сентября 2016


Качество: BDRip 1080p by DD2D3
Формат: MKV
Видео кодек: V_MPEGH/ISO/HEVC
Аудио кодек: AC3
Видео: V_MPEGH/ISO/HEVC; 1920x800 (2.40:1); 4505 Kbps; 59,940 fps; 0,049 bpp
Аудио: русский; AC3; 448 Kbps; CBR; 6 ch
Навигация по главам: есть



General
Unique ID : 208271666211854953106579332624686586832 (0x9CAFA9F23C81E5A68DEAA2DBC4451BD0)
Complete name : D:\Eastrail 177 Trilogy (2000-2019) BDRip - HEVC 1080p 10 bit 60 FPS\Split (2016) BDRip - HEVC 1080p 10 bit 60 FPS.mkv
Format : Matroska
Format version : Version 4
File size : 4.06 GiB
Duration : 1 h 57 min
Overall bit rate : 4 960 kb/s
Movie name : Rip by from DD2D3
Encoded date : UTC 2020-11-29 17:56:13
Writing application : mkvmerge v10.0.0 ('To Drown In You') 32bit
Writing library : libebml v1.3.4 + libmatroska v1.4.5
Attachments : poster

Video
ID : 1
Format : HEVC
Format/Info : High Efficiency Video Coding
Format profile : Main 10@L4.1@Main
Codec ID : V_MPEGH/ISO/HEVC
Duration : 1 h 57 min
Bit rate : 4 506 kb/s
Width : 1 920 pixels
Height : 800 pixels
Display aspect ratio : 2.40:1
Frame rate mode : Constant
Frame rate : 59.940 (60000/1001) FPS
Color space : YUV
Chroma subsampling : 4:2:0
Bit depth : 10 bits
Bits/(Pixel*Frame) : 0.049
Stream size : 3.69 GiB (91%)
Writing library : x265 2.3+33-0b7d54dbb71a87a0:[Windows][MSVC 1800][64 bit] 10bit: KG7x [x265.ru]
Encoding settings : cpuid=1173503 / frame-threads=2 / numa-pools=4 / wpp / no-pmode / no-pme / no-psnr / no-ssim / log-level=2 / input-csp=1 / input-res=1920x800 / interlace=0 / total-frames=421246 / level-idc=41 / high-tier=1 / uhd-bd=0 / ref=3 / no-allow-non-conformance / no-repeat-headers / annexb / no-aud / no-hrd / info / hash=0 / no-temporal-layers / open-gop / min-keyint=25 / keyint=250 / bframes=4 / b-adapt=2 / b-pyramid / bframe-bias=0 / rc-lookahead=20 / lookahead-slices=5 / scenecut=40 / no-intra-refresh / ctu=64 / min-cu-size=8 / no-rect / no-amp / max-tu-size=32 / tu-inter-depth=1 / tu-intra-depth=1 / limit-tu=0 / rdoq-level=0 / dynamic-rd=0.00 / no-ssim-rd / signhide / no-tskip / nr-intra=0 / nr-inter=0 / no-constrained-intra / strong-intra-smoothing / max-merge=2 / limit-refs=3 / no-limit-modes / me=1 / subme=2 / merange=57 / temporal-mvp / weightp / no-weightb / no-analyze-src-pics / deblock=0:0 / sao / no-sao-non-deblock / rd=3 / no-early-skip / rskip / no-fast-intra / no-tskip-fast / no-cu-lossless / no-b-intra / rdpenalty=0 / psy-rd=2.00 / psy-rdoq=0.00 / no-rd-refine / analysis-mode=0 / no-lossless / cbqpoffs=0 / crqpoffs=0 / rc=abr / bitrate=4500 / qcomp=0.60 / qpstep=4 / stats-write=0 / stats-read=2 / cplxblur=20.0 / qblur=0.5 / ipratio=1.40 / pbratio=1.30 / aq-mode=1 / aq-strength=1.00 / cutree / zone-count=0 / no-strict-cbr / qg-size=32 / no-rc-grain / qpmax=69 / qpmin=0 / sar=1 / overscan=0 / videoformat=5 / range=0 / colorprim=2 / transfer=2 / colormatrix=2 / chromaloc=0 / display-window=0 / max-cll=0,0 / min-luma=0 / max-luma=1023 / log2-max-poc-lsb=8 / vui-timing-info / vui-hrd-info / slices=1 / opt-qp-pps / opt-ref-list-length-pps / no-multi-pass-opt-rps / scenecut-bias=0.05 / no-opt-cu-delta-qp / no-aq-motion / no-hdr / no-hdr-opt / refine-level=5 / no-limit-sao
Default : Yes
Forced : No

Audio
ID : 2
Format : AC-3
Format/Info : Audio Coding 3
Commercial name : Dolby Digital
Codec ID : A_AC3
Duration : 1 h 57 min
Bit rate mode : Constant
Bit rate : 448 kb/s
Channel(s) : 6 channels
Channel layout : L R C LFE Ls Rs
Sampling rate : 48.0 kHz
Frame rate : 31.250 FPS (1536 SPF)
Compression mode : Lossy
Stream size : 375 MiB (9%)
Title : Dub [License]
Language : Russian
Service kind : Complete Main
Default : No
Forced : No

Text
ID : 3
Format : UTF-8
Codec ID : S_TEXT/UTF8
Codec ID/Info : UTF-8 Plain Text
Duration : 1 h 56 min
Bit rate : 58 b/s
Count of elements : 1226
Stream size : 49.4 KiB (0%)
Title : Full [License]
Language : Russian
Default : No
Forced : No

Menu
00:00:00.000 : en:00:00:00.000
00:06:08.451 : en:00:06:08.451
00:14:19.025 : en:00:14:19.025
00:20:49.373 : en:00:20:49.373
00:24:14.536 : en:00:24:14.536
00:28:37.049 : en:00:28:37.049
00:35:47.979 : en:00:35:47.979
00:42:35.386 : en:00:42:35.386
00:49:06.068 : en:00:49:06.068
00:54:09.413 : en:00:54:09.413
01:00:24.496 : en:01:00:24.496
01:06:22.562 : en:01:06:22.562
01:12:31.222 : en:01:12:31.222
01:19:35.771 : en:01:19:35.771
01:25:25.829 : en:01:25:25.829
01:29:16.560 : en:01:29:16.560
01:34:08.226 : en:01:34:08.226
01:40:45.998 : en:01:40:45.998
01:47:40.287 : en:01:47:40.287
01:52:26.740 : en:01:52:26.740


скриншот   скриншот   скриншот   скриншот  


Стекло - Glass«Дай волю своим демонам»

Год выпуска: 2019
Страна: США, Китай
Жанр: Фантастика, триллер, драма, детектив

Продолжительность: 02:09:05
Перевод: Дубляж
Субтитры: русские

Режиссер: М. Найт Шьямалан / M. Night Shyamalan

В ролях: Джеймс МакЭвой, Брюс Уиллис, Сэмюэл Л. Джексон, Сара Полсон, Аня Тейлор-Джой, Спенсер Трит Кларк, Чарлэйн Вудард, Люк Кирби, Адам Дэвид Томпсон, М. Найт Шьямалан, Шеннон Дестини Райан, Диана Сильверс, Нина Уиснер, Серж Диденко, Джейн Парк Смит, Кайли Зион, Расселл Познер, Кимберли С. Фербенкс

Описание:
Похититель с множественным расстройством личности и террорист-инвалид Мистер Стекло выходят на своих давних противников - травмированную девочку-подростка Кейси и стареющего супергероя Дэвида Данна.

Мировая премьера: 7 января 2019


Качество: BDRip 1080p by DD2D3
Формат: MKV
Видео кодек: V_MPEGH/ISO/HEVC
Аудио кодек: AC3
Видео: V_MPEGH/ISO/HEVC; 1920x804 (2.40:1); 4502 Kbps; 59,940 fps; 0,049 bpp
Аудио: русский; AC3; 384 Kbps; CBR; 6 ch
Навигация по главам: есть



General
Unique ID : 243687121430509070063963837173678556364 (0xB7546EB33CEC87BBB42751A3A4C944CC)
Complete name : D:\Eastrail 177 Trilogy (2000-2019) BDRip - HEVC 1080p 10 bit 60 FPS\Glass (2019) BDRip - HEVC 1080p 10 bit 60 FPS.mkv
Format : Matroska
Format version : Version 4
File size : 4.41 GiB
Duration : 2 h 9 min
Overall bit rate : 4 890 kb/s
Movie name : Rip by from DD2D3
Encoded date : UTC 2020-11-29 17:41:51
Writing application : mkvmerge v10.0.0 ('To Drown In You') 32bit
Writing library : libebml v1.3.4 + libmatroska v1.4.5
Attachments : poster

Video
ID : 1
Format : HEVC
Format/Info : High Efficiency Video Coding
Format profile : Main 10@L4.1@Main
Codec ID : V_MPEGH/ISO/HEVC
Duration : 2 h 9 min
Bit rate : 4 503 kb/s
Width : 1 920 pixels
Height : 804 pixels
Display aspect ratio : 2.40:1
Frame rate mode : Constant
Frame rate : 59.940 (60000/1001) FPS
Color space : YUV
Chroma subsampling : 4:2:0
Bit depth : 10 bits
Bits/(Pixel*Frame) : 0.049
Stream size : 4.06 GiB (92%)
Writing library : x265 2.3+33-0b7d54dbb71a87a0:[Windows][MSVC 1800][64 bit] 10bit: KG7x [x265.ru]
Encoding settings : cpuid=1173503 / frame-threads=2 / numa-pools=4 / wpp / no-pmode / no-pme / no-psnr / no-ssim / log-level=2 / input-csp=1 / input-res=1920x804 / interlace=0 / total-frames=464026 / level-idc=41 / high-tier=1 / uhd-bd=0 / ref=3 / no-allow-non-conformance / no-repeat-headers / annexb / no-aud / no-hrd / info / hash=0 / no-temporal-layers / open-gop / min-keyint=25 / keyint=250 / bframes=4 / b-adapt=2 / b-pyramid / bframe-bias=0 / rc-lookahead=20 / lookahead-slices=5 / scenecut=40 / no-intra-refresh / ctu=64 / min-cu-size=8 / no-rect / no-amp / max-tu-size=32 / tu-inter-depth=1 / tu-intra-depth=1 / limit-tu=0 / rdoq-level=0 / dynamic-rd=0.00 / no-ssim-rd / signhide / no-tskip / nr-intra=0 / nr-inter=0 / no-constrained-intra / strong-intra-smoothing / max-merge=2 / limit-refs=3 / no-limit-modes / me=1 / subme=2 / merange=57 / temporal-mvp / weightp / no-weightb / no-analyze-src-pics / deblock=0:0 / sao / no-sao-non-deblock / rd=3 / no-early-skip / rskip / no-fast-intra / no-tskip-fast / no-cu-lossless / no-b-intra / rdpenalty=0 / psy-rd=2.00 / psy-rdoq=0.00 / no-rd-refine / analysis-mode=0 / no-lossless / cbqpoffs=0 / crqpoffs=0 / rc=abr / bitrate=4500 / qcomp=0.60 / qpstep=4 / stats-write=0 / stats-read=2 / cplxblur=20.0 / qblur=0.5 / ipratio=1.40 / pbratio=1.30 / aq-mode=1 / aq-strength=1.00 / cutree / zone-count=0 / no-strict-cbr / qg-size=32 / no-rc-grain / qpmax=69 / qpmin=0 / sar=1 / overscan=0 / videoformat=5 / range=0 / colorprim=2 / transfer=2 / colormatrix=2 / chromaloc=0 / display-window=0 / max-cll=0,0 / min-luma=0 / max-luma=1023 / log2-max-poc-lsb=8 / vui-timing-info / vui-hrd-info / slices=1 / opt-qp-pps / opt-ref-list-length-pps / no-multi-pass-opt-rps / scenecut-bias=0.05 / no-opt-cu-delta-qp / no-aq-motion / no-hdr / no-hdr-opt / refine-level=5 / no-limit-sao
Default : Yes
Forced : No

Audio
ID : 2
Format : AC-3
Format/Info : Audio Coding 3
Commercial name : Dolby Digital
Codec ID : A_AC3
Duration : 2 h 9 min
Bit rate mode : Constant
Bit rate : 384 kb/s
Channel(s) : 6 channels
Channel layout : L R C LFE Ls Rs
Sampling rate : 48.0 kHz
Frame rate : 31.250 FPS (1536 SPF)
Compression mode : Lossy
Stream size : 355 MiB (8%)
Title : iTunes
Language : Russian
Service kind : Complete Main
Default : Yes
Forced : Yes

Menu
00:00:00.000 : en:Глава 01
00:04:08.457 : en:Глава 02
00:09:36.367 : en:Глава 03
00:14:30.078 : en:Глава 04
00:19:49.897 : en:Глава 05
00:24:41.063 : en:Глава 06
00:29:45.826 : en:Глава 07
00:35:00.598 : en:Глава 08
00:39:07.595 : en:Глава 09
00:47:28.220 : en:Глава 10
00:57:16.224 : en:Глава 11
01:02:55.271 : en:Глава 12
01:09:26.829 : en:Глава 13
01:14:30.299 : en:Глава 14
01:21:43.774 : en:Глава 15
01:30:10.530 : en:Глава 16
01:38:15.515 : en:Глава 17
01:44:08.742 : en:Глава 18
01:54:07.215 : en:Глава 19
02:03:00.290 : en:Глава 20


скриншот   скриншот   скриншот   скриншот  


pb.wtf



Скачать Tрилогия Eastrail 177 - Eastrail 177 Trilogy через торрент https://funkyimg.com/i/391yX.png Скачать, смотреть онлайн Tрилогия Eastrail 177 - Eastrail 177 Trilogy бесплантно в хорошем качестве Описание: В 3:15 пополудни происходит страшная железнодорожная катастрофа. Из 132 пассажиров в живых остается только один. Дэйвид Данн не ... 10 10 6
Торрент: Зарегистрирован [2020-11-29 19:23] · скачан: 22 раз
Статус: √ проверено
Размер: 12.3 GB
Как cкачать? Как скачать Tрилогия Eastrail 177 - Eastrail 177 Trilogy через торрент | UTorrent

28-11-2019 20:33  

Отключить всю рекламу на сайте

25-12-2020 14:35 Tрилогия Eastrail 177 - Eastrail 177 Trilogy Скачать торрент  

Я всегда вижу, что есть 2 семечки или одно но никто не сеет
Я не знаю, это ошибка в моем Интернете или я не знаюpb.wtf



    Дорогой пользователь! Огромная просьба, поблагодарите релизера, оцените раздачу и оставьте свои комментарий, если Вы скачали Tрилогия Eastrail 177 - Eastrail 177 Trilogy через торрент бесплатно!
    Комментировать посты могут только пользователи прошедшие не сложную регистрацию
    Показать сообщения:    

    Tрилогия Eastrail 177 - Eastrail 177 Trilogy через торрент
    Скачать бесплатно Tрилогия Eastrail 177 - Eastrail 177 Trilogy
    Tрилогия Eastrail 177 - Eastrail 177 Trilogy скачать торрент
    Tрилогия Eastrail 177 - Eastrail 177 Trilogy смотреть онлайн
    Cкачать фильм Tрилогия Eastrail 177 - Eastrail 177 Trilogy бесплатно
    Tрилогия Eastrail 177 - Eastrail 177 Trilogy скачать торрент в хорошем качестве
    Tрилогия Eastrail 177 - Eastrail 177 Trilogy смотреть онлайн бесплатно в хорошем качестве


    Вы не можете начинать темы
    Вы не можете отвечать на сообщения
    Вы не можете редактировать свои сообщения
    Вы не можете удалять свои сообщения
    Вы не можете голосовать в опросах
    Вы не можете прикреплять файлы к сообщениям
    Вы можете скачивать файлы