Достать ножи: Стеклянная луковица

MVO

Добыча

Дубляж

Уэнсдэй

1 сезон

Тор

Дубляж

13 клиническая

1 сезон

Жестокая ночь

MVO

Одни из нас

1 сезон

Deluxe

pack

Рекомендуем

30

Пиратка

ВАЖНО

ВАЖНО

Ghostwire

Пиратка

jed

RePack

nioh2

RePack

RDR2

RePack

NEED FOR SPEED™ PAYBACK

RePack

скачать торрент

Кинопоиск HD

Острые козырьки 6 сезон

6 сезон

FAR CRY 6

RePack

скачать торрент

Лицензия

скачать торрент

MVO

1

1 сезон

скачать торрент

1 сезон

скачать торрент

Лицензия

  

Гемини в 3D / Gemini Man in 3D (Энг Ли) [2019 г., боевик, фантастика, BDRip 720p / 60 FPS, Дубляж Лицензия] Анаглиф (Дюбуа) от R.G. HD-Films

Гемини в 3D через торрент pb.wtf

Размер: 4.88 GB | Добавлен: 2 года 2 мес. назад | Торрент скачан:6 раз
Смотреть онлайн | Скачать | Поддержите нас   

30-11-2020 13:20 Гемини в 3D Скачать торрент  

Гемини в 3D / Gemini Man in 3D
Год выпуска: 2019
Страна: США, Китай
Жанр: боевик, фантастика
Продолжительность: 01:57:01
Перевод: Дубляж Лицензия
Субтитры: русские , украинские , английские

Режиссер: Энг Ли

Бюджет: $138 000 000
Премьера в мире: 25 сентября 2019

rating

В ролях: Уилл Смит, Мэри Элизабет Уинстэд, Клайв Оуэн, Бенедикт Вонг, Дуглас Ходж, Теодора Вулли, Ральф Браун, Линда Эмонд, Андреа Суч, Илья Волох, Дэвид Моретти, Илона МакКри, Э.Дж. Бонилья, Виктор Хьюго

Описание: Генри Броган всю свою жизнь зарабатывал тем, что убивал людей. Он высококвалифицированный киллер, который не раз помогал правительству Соединенных Штатов Америки. Только вот настал день, когда и его приказали устранить. Но не так-то просто убить человека, который об этом ремесле знает больше кого-либо другого. Поэтому для этого задания отправили идеального бойца. Он знает Генри лучше других – ведь это сам Броган, вернее его более молодая копия. Каждое движение, каждая мысль, которые приходят к Генри, приходят и к его двойнику. Что победит в этой схватке: молодость и сила или возраст и опыт?

Доп. информация: Формат 3D: Анаглиф (Дюбуа)



Качество: BDRip 720p / 60 FPS
Формат: MKV
Видео кодек: H.264
Аудио кодек: AC3
Видео: x264, 1280 x 688 ( 1,85:1 ), 5 594 kbps, 60,000 fps, ( 0.106 bpp)
Аудио#1: Русский, AC-3, 48.0 KHz, 6 ch, 384 Kbps Дубляж
Релиз от: Автор рипа: slaventi-69
Общее
Уникальный идентификатор : 277764870660390423790950580019884550695 (0xD0F79174EC8E4167F6B93B1E2EC56A27)
Полное имя : E:\Temp\Заказ\GeminiMan(2019)3D.(Anaglyph_Dubois).720p.(60 Fps).mkv
Формат : Matroska
Версия формата : Version 4
Размер файла : 4,88 Гбайт
Продолжительность : 1 ч. 56 м.
Общий поток : 5 982 Кбит/сек
Название фильма : Гемини / Gemini Man (2019) in 3D (Anaglyph_Dubois) 720p.(60 Fps) (60 Fps)
Дата кодирования : UTC 2020-11-29 09:24:25
Программа кодирования : mkvmerge v35.0.0 ('All The Love In The World') 64-bit
Библиотека кодирования : libebml v1.3.9 + libmatroska v1.5.2

Видео
Идентификатор : 1
Формат : AVC
Формат/Информация : Advanced Video Codec
Профиль формата : [email protected]
MultiView_Count : 2
MultiView_Layout : Anaglyph (cyan/red)
Настройки формата : CABAC / 9 Ref Frames
Параметр CABAC формата : Да
Параметр RefFrames формата : 9 кадров
Идентификатор кодека : V_MPEG4/ISO/AVC
Продолжительность : 1 ч. 56 м.
Битрейт : 5 594 Кбит/сек
Ширина : 1 280 пикселей
Высота : 688 пикселей
Соотношение сторон : 1,85:1
Режим частоты кадров : Постоянный
Частота кадров : 60,000 кадров/сек
Цветовое пространство : YUV
Субдискретизация насыщенности : 4:2:0
Битовая глубина : 8 бит
Тип развёртки : Прогрессивная
Бит/(Пиксели*Кадры) : 0.106
Размер потока : 4,57 Гбайт (94%)
Заголовок : slaventi-69 ( R.G. HD-Films | 60 fps )
Библиотека кодирования : x264 core 130 r2273 b3065e6
Настройки программы : cabac=1 / ref=9 / deblock=1:0:0 / analyse=0x3:0x113 / me=umh / subme=9 / psy=1 / psy_rd=1.00:0.00 / mixed_ref=1 / me_range=32 / chroma_me=1 / trellis=2 / 8x8dct=1 / cqm=0 / deadzone=21,11 / fast_pskip=1 / chroma_qp_offset=-2 / threads=10 / lookahead_threads=4 / sliced_threads=0 / nr=0 / decimate=1 / interlaced=0 / bluray_compat=0 / constrained_intra=0 / bframes=5 / b_pyramid=2 / b_adapt=2 / b_bias=0 / direct=1 / weightb=1 / open_gop=0 / weightp=2 / keyint=600 / keyint_min=23 / scenecut=40 / intra_refresh=0 / rc=crf / mbtree=0 / crf=15.5 / qcomp=0.60 / qpmin=0 / qpmax=69 / qpstep=4 / ip_ratio=1.40 / pb_ratio=1.30 / aq=1:1.00
Язык : English
Default : Да
Forced : Нет

Аудио
Идентификатор : 2
Формат : AC-3
Формат/Информация : Audio Coding 3
Коммерческое название : Dolby Digital
Идентификатор кодека : A_AC3
Продолжительность : 1 ч. 56 м.
Вид битрейта : Постоянный
Битрейт : 384 Кбит/сек
Каналы : 6 каналов
Channel layout : L R C LFE Ls Rs
Частота : 48,0 КГц
Частота кадров : 31,250 кадров/сек (1536 SPF)
Метод сжатия : С потерями
Размер потока : 321 Мбайт (6%)
Заголовок : Дубляж (BD Eur)
Язык : Russian
Service kind : Complete Main
Default : Да
Forced : Нет

Текст #1
Идентификатор : 3
Формат : UTF-8
Идентификатор кодека : S_TEXT/UTF8
Идентификатор кодека/Информация : UTF-8 Plain Text
Продолжительность : 1 ч. 55 м.
Битрейт : 69 бит/сек
Count of elements : 1336
Размер потока : 59,1 Кбайт (0%)
Заголовок : Полные
Язык : Russian
Default : Нет
Forced : Нет

Текст #2
Идентификатор : 4
Формат : UTF-8
Идентификатор кодека : S_TEXT/UTF8
Идентификатор кодека/Информация : UTF-8 Plain Text
Продолжительность : 1 ч. 47 м.
Битрейт : 0 бит/сек
Count of elements : 15
Размер потока : 646 байт (0%)
Заголовок : Форсированные
Язык : Ukrainian
Default : Нет
Forced : Нет

Текст #3
Идентификатор : 5
Формат : UTF-8
Идентификатор кодека : S_TEXT/UTF8
Идентификатор кодека/Информация : UTF-8 Plain Text
Продолжительность : 1 ч. 47 м.
Битрейт : 74 бит/сек
Count of elements : 1336
Размер потока : 58,7 Кбайт (0%)
Заголовок : Полные
Язык : Ukrainian
Default : Нет
Forced : Нет

Текст #4
Идентификатор : 6
Формат : UTF-8
Идентификатор кодека : S_TEXT/UTF8
Идентификатор кодека/Информация : UTF-8 Plain Text
Продолжительность : 1 ч. 45 м.
Битрейт : 50 бит/сек
Count of elements : 1356
Размер потока : 38,6 Кбайт (0%)
Заголовок : Full
Язык : English
Default : Нет
Forced : Нет

Меню
00:00:00.000 : :1
00:07:21.650 : :2
00:15:31.681 : :3
00:18:13.134 : :4
00:24:39.520 : :5
00:30:59.441 : :6
00:34:09.464 : :7
00:42:40.308 : :8
00:50:24.897 : :9
00:56:45.819 : :10
01:03:30.306 : :11
01:08:13.172 : :12
01:16:45.935 : :13
01:24:43.996 : :14
01:30:04.733 : :15
01:34:00.927 : :16
01:42:14.462 : :17
01:47:07.588 : :18

Просьба к переливающим на другие сайты, в оформлении указывайте пожалуйста авторство группы R.G. HD-Films



Скачать Гемини в 3D через торрент https://a.radikal.ru/a27/2002/68/6194b5fb6655.png Скачать, смотреть онлайн Гемини в 3D бесплантно в хорошем качестве Описание: Генри Броган всю свою жизнь зарабатывал тем, что убивал людей. Он высококвалифицированный киллер, который не раз помогал ... 4 10 3
Торрент: Зарегистрирован [2020-11-30 13:20] · скачан: 6 раз
Статус: √ проверено
Размер: 4.88 GB
Как cкачать? Как скачать Гемини в 3D через торрент | UTorrent

% Раздел Тема Автор DL S | L
3D Фильмы [ 7.31 GB ] Гемини в 3D / Gemini Man in 3D | Лицензия | 1080p, Дубляж Лицензия slaventi-69 Скачать
1 | 0
3D Фильмы [ 15.81 GB ] Гемини в 3Д / Gemini Man 3D | | 1080p serega768 Скачать
2 | 0

28-11-2019 20:33  


Отключить вcю реклaмy на сайте, в т.ч. и в плеере онлайн просмотра!

30-11-2020 13:58 Гемини в 3D Скачать торрент  

Я думал фулка будет, 720 такое себе под конец 2020



30-11-2020 14:39 Гемини в 3D Скачать торрент  

Рейтинг: 1 / 10 (2) +10+9+8+7+6+5+4+3+2+1 <-- оцени раздачу
Поблагодарили: ❤ 1 (список)

"Спасибо за оценку"



    Дорогой пользователь! Огромная просьба, поблагодарите релизера, оцените раздачу и оставьте свои комментарий, если Вы скачали Гемини в 3D через торрент бесплатно!!
    Комментировать посты могут только пользователи прошедшие не сложную регистрацию
    Показать сообщения:    


    Гемини в 3D через торрент
    Скачать бесплатно Гемини в 3D
    Гемини в 3D скачать торрент
    Гемини в 3D смотреть онлайн
    Cкачать фильм Гемини в 3D бесплатно
    Гемини в 3D скачать торрент в хорошем качестве
    Гемини в 3D смотреть онлайн бесплатно в хорошем качестве
    Вы не можете начинать темы
    Вы не можете отвечать на сообщения
    Вы не можете редактировать свои сообщения
    Вы не можете удалять свои сообщения
    Вы не можете голосовать в опросах
    Вы не можете прикреплять файлы к сообщениям
    Вы можете скачивать файлы
    Гемини в 3D / Gemini Man in 3D [2019 г., боевик, фантастика, BDRip 720p / 60 FPS, Дубляж Лицензия] Анаглиф от R.G. HD-Films смотреть онлайн, скачать торрент picoco.icu