Всегда рабочее зеркало без VPN и Proxy просто перед .vidak.icu напиши любое слово или цифру, Пример http://insx.vidak.icu

MVO

MVO

1 сезон

1

1 сезон

iTunes

1 сезон

13

1 сезон

Deluxe

pack

Рекомендуем

Repack

30

ВАЖНО

RePack

MK11

RePack

jed

RePack

fifa19

RePack

RDR2

RePack

NEED FOR SPEED™ PAYBACK

Кинопоиск HD

6 сезон

 Острые козырьки 6 сезон

Все сериалы

все сериалы на PB.wtf

RePack

FAR CRY 5
  
Magnet ссылка

Хоббит: Битва пяти воинств / The Hobbit: The Battle of the Five Armies (Питер Джексон) [2014, Фэнтези, приключения, UHD BDRemux 2160p] [Расширенная версия] DUB [Лицензия] +MVO+2xAVO pb.wtf

Хоббит: Битва пяти воинств через торрент pb.wtf

Раздают: 1 [ 0 KB/s ]
Размер: 81.44 GB | Добавлен: 1 год 8 мес. назад | Торрент скачан:207 раз
Смотреть онлайн Хоббит: Битва пяти воинств | Скачать    Ребята, помогите собрать деньги на оплату серверов!!!

01-12-2020 03:58 Хоббит: Битва пяти воинств Скачать торрент  

Хоббит: Битва пяти воинств | The Hobbit: The Battle of the Five Armies
Год выпуска: 2014
Страна: США, Новая Зеландия
Студия: 3Foot7, Metro-Goldwyn-Mayer (MGM), New Line Cinema, WingNut Films
Жанр: Фэнтези, приключения
Продолжительность: 03:02:31
Перевод(ы):
#1: Дублированный | Blu-ray CEE
#2: Профессиональный многоголосый | Омикрон (разговоры Орков и Эльфов оставлены в оригинале, на них форсированные субтитры)
#2: Профессиональный многоголосый | Омикрон (озвучены разговоры Орков и Эльфов)
#3: Авторский | Ю. Сербин
#4: Авторский | В. Горчаков
Субтитры: Русские (Forced, full), английские

Режиссер: Питер Джексон

rating

В ролях: Мартин Фриман, Иэн МакКеллен, Ричард Армитедж, Люк Эванс, Эванджелин Лилли, Ли Пейс, Орландо Блум, Бенедикт Камбербэтч, Кен Стотт, Эйдан Тёрнер, Грэм МакТавиш, Уильям Кирчер, Стивен Хантер, Дин О`Горман, Джеймс Несбитт, Джон Коллен, Питер Хэмблтон, Джед Брофи, Кейт Бланшетт, Хьюго Уивинг

Описание: Когда отряд из тринадцати гномов нанимал хоббита Бильбо Бэгинса в качестве взломщика и четырнадцатого, «счастливого», участника похода к Одинокой горе, Бильбо полагал, что его приключения закончатся, когда он выполнит свою задачу — найдет сокровище, которое так необходимо предводителю гномов Торину. Путешествие в Эребор, захваченное драконом Смаугом королевство гномов, оказалось еще более опасным, чем предполагали гномы и даже Гэндальф — мудрый волшебник, протянувший Торину и его отряду руку помощи. В погоню за гномами устремилась армия орков, ведомых пробудившимся в руинах древним злом, а эльфы и люди, с которыми Бильбо и его товарищам пришлось иметь дело во время путешествия и которые пострадали от последствий желания гномов вернуть свой дом, предъявили права на щедрое вознаграждение — часть сокровищ Одинокой горы. Скоро неподалеку от Одинокой горы встретятся пять армий, и лишь кровопролитная битва определит результаты смелого гномьего похода.

Качество: UHD BDRemux 2160p | Расширенная версия
Формат: MKV

Видео: 3840x2160 at 23.976 fps, MPEG-H HEVC HDR Video, 47900 kbps avg
Аудио #01: 48 kHz, AC3, 5.1, 448 Kbps | Дублированный | Blu-ray CEE | RUS |
Аудио #02: 48 kHz, DTS-HD MA, 7.1, 4790 Kbps | Профессиональный многоголосый | Омикрон | RUS |
Аудио #03: 48 kHz, DTS-HD MA, 7.1, 4792 Kbps | Профессиональный многоголосый | Омикрон (полная озвучка) | RUS |
Аудио #03: 48 kHz, DTS-HD MA, 7.1, 4611 Kbps | Авторский | Ю. Сербин | RUS |
Аудио #04: 48 kHz, DTS-HD MA, 7.1, 4787 Kbps | Авторский | В. Горчаков | RUS |
Аудио #05: 48 kHz, TrueHD, 7.1, 3198 Kbps | Оригинал | ENG |
Аудио #06: 48 kHz, AC3, 7.1, 448 Kbps | Оригинал | ENG |
скриншот  скриншот  скриншот  скриншот  скриншот  

General
Unique ID : 23543966278383259210081052231180861295 (0x11B66728D050E4435075A35E02B1BF6F)
Complete name : D:VidThe.Hobbit.The.Battle.of.the.Five.Armies.2014.EXTENDED.BDREMUX.2160p.HDR.seleZen.mkv
Format : Matroska
Format version : Version 4
File size : 81.4 GiB
Duration : 2 h 44 min
Overall bit rate mode : Variable
Overall bit rate : 71.1 Mb/s
Movie name : The.Hobbit.The.Battle.of.the.Five.Armies.2014.EXTENDED from seleZen
Encoded date : UTC 2020-11-30 22:32:21
Writing application : mkvmerge v40.0.0 ('Old Town Road + Pony') 64-bit
Writing library : libebml v1.3.9 + libmatroska v1.5.2

Video
ID : 1
Format : HEVC
Format/Info : High Efficiency Video Coding
Format profile : Main [email protected]@High
HDR format : SMPTE ST 2086, HDR10 compatible
Codec ID : V_MPEGH/ISO/HEVC
Duration : 2 h 44 min
Bit rate : 47.9 Mb/s
Width : 3 840 pixels
Height : 2 160 pixels
Display aspect ratio : 16:9
Frame rate mode : Constant
Frame rate : 23.976 (24000/1001) FPS
Color space : YUV
Chroma subsampling : 4:2:0 (Type 2)
Bit depth : 10 bits
Bits/(Pixel*Frame) : 0.241
Stream size : 54.9 GiB (67%)
Language : English
Default : Yes
Forced : No
Color range : Limited
Color primaries : BT.2020
Transfer characteristics : PQ
Matrix coefficients : BT.2020 non-constant
Mastering display color pri : Display P3
Mastering display luminance : min: 0.0050 cd/m2, max: 4000 cd/m2
Maximum Content Light Level : 1163 cd/m2
Maximum Frame-Average Light : 162 cd/m2

Audio #1
ID : 2
Format : AC-3
Format/Info : Audio Coding 3
Commercial name : Dolby Digital
Codec ID : A_AC3
Duration : 2 h 44 min
Bit rate mode : Constant
Bit rate : 448 kb/s
Channel(s) : 6 channels
Channel layout : L R C LFE Ls Rs
Sampling rate : 48.0 kHz
Frame rate : 31.250 FPS (1536 SPF)
Compression mode : Lossy
Stream size : 526 MiB (1%)
Title : Dub [Blu-Ray CEE]
Language : Russian
Service kind : Complete Main
Default : Yes
Forced : Yes

Audio #2
ID : 3
Format : DTS ES XLL
Format/Info : Digital Theater Systems
Commercial name : DTS-HD Master Audio
Codec ID : A_DTS
Duration : 2 h 44 min
Bit rate mode : Variable
Bit rate : 4 790 kb/s
Channel(s) : 8 channels
Channel layout : C L R Ls Rs LFE Lb Rb
Sampling rate : 48.0 kHz
Frame rate : 93.750 FPS (512 SPF)
Bit depth : 24 bits
Compression mode : Lossless
Stream size : 5.49 GiB (7%)
Title : MVO_Омикрон_(разговоры Орков & Эльфов оставлены в оригинале, на них форсированные субтитры)|
Language : Russian
Default : No
Forced : No

Audio #3
ID : 4
Format : DTS ES XLL
Format/Info : Digital Theater Systems
Commercial name : DTS-HD Master Audio
Codec ID : A_DTS
Duration : 2 h 44 min
Bit rate mode : Variable
Bit rate : 4 792 kb/s
Channel(s) : 8 channels
Channel layout : C L R Ls Rs LFE Lb Rb
Sampling rate : 48.0 kHz
Frame rate : 93.750 FPS (512 SPF)
Bit depth : 24 bits
Compression mode : Lossless
Stream size : 5.49 GiB (7%)
Title : MVO_Омикрон_(озвучены разговоры Орков & Эльфов)|
Language : Russian
Default : No
Forced : No

Audio #4
ID : 5
Format : DTS XLL
Format/Info : Digital Theater Systems
Commercial name : DTS-HD Master Audio
Codec ID : A_DTS
Duration : 2 h 44 min
Bit rate mode : Variable
Bit rate : 4 611 kb/s
Channel(s) : 8 channels
Channel layout : C L R LFE Lb Rb Lss Rss
Sampling rate : 48.0 kHz
Frame rate : 93.750 FPS (512 SPF)
Bit depth : 24 bits
Compression mode : Lossless
Stream size : 5.28 GiB (6%)
Title : AVO Сербин, Юрий Владимирович|
Language : Russian
Default : No
Forced : No

Audio #5
ID : 6
Format : DTS XLL
Format/Info : Digital Theater Systems
Commercial name : DTS-HD Master Audio
Codec ID : A_DTS
Duration : 2 h 44 min
Bit rate mode : Variable
Bit rate : 4 787 kb/s
Channel(s) : 8 channels
Channel layout : C L R LFE Lb Rb Lss Rss
Sampling rate : 48.0 kHz
Frame rate : 93.750 FPS (512 SPF)
Bit depth : 24 bits
Compression mode : Lossless
Stream size : 5.49 GiB (7%)
Title : AVO Горчаков, Василий Овидиевич|
Language : Russian
Default : No
Forced : No

Audio #6
ID : 7
Format : MLP FBA 16-ch
Format/Info : Meridian Lossless Packing FBA with 16-channel presentation
Commercial name : Dolby TrueHD with Dolby Atmos
Codec ID : A_TRUEHD
Duration : 2 h 44 min
Bit rate mode : Variable
Bit rate : 3 198 kb/s
Maximum bit rate : 4 902 kb/s
Channel(s) : 8 channels
Channel layout : L R C LFE Ls Rs Lb Rb
Sampling rate : 48.0 kHz
Frame rate : 1 200.000 FPS (40 SPF)
Compression mode : Lossless
Stream size : 3.66 GiB (4%)
Title : Original
Language : English
Default : No
Forced : No
Number of dynamic objects : 11
Bed channel count : 1 channel
Bed channel configuration : LFE

Audio #7
ID : 8
Format : AC-3
Format/Info : Audio Coding 3
Commercial name : Dolby Digital
Codec ID : A_AC3
Duration : 2 h 44 min
Bit rate mode : Constant
Bit rate : 448 kb/s
Channel(s) : 6 channels
Channel layout : L R C LFE Ls Rs
Sampling rate : 48.0 kHz
Frame rate : 31.250 FPS (1536 SPF)
Compression mode : Lossy
Stream size : 526 MiB (1%)
Language : English
Service kind : Complete Main
Default : No
Forced : No

Text #1
ID : 9
Format : UTF-8
Codec ID : S_TEXT/UTF8
Codec ID/Info : UTF-8 Plain Text
Duration : 2 h 28 min
Bit rate : 3 b/s
Count of elements : 98
Stream size : 3.44 KiB (0%)
Title : Forced
Language : Russian
Default : Yes
Forced : Yes

Text #2
ID : 10
Format : UTF-8
Codec ID : S_TEXT/UTF8
Codec ID/Info : UTF-8 Plain Text
Duration : 2 h 42 min
Bit rate : 39 b/s
Count of elements : 1549
Stream size : 47.2 KiB (0%)
Title : Full iTunes
Language : Russian
Default : No
Forced : No

Text #3
ID : 11
Format : UTF-8
Codec ID : S_TEXT/UTF8
Codec ID/Info : UTF-8 Plain Text
Duration : 2 h 30 min
Bit rate : 56 b/s
Count of elements : 1424
Stream size : 62.7 KiB (0%)
Title : Full Воронин, Евгений
Language : Russian
Default : No
Forced : No

Text #4
ID : 12
Format : UTF-8
Codec ID : S_TEXT/UTF8
Codec ID/Info : UTF-8 Plain Text
Duration : 2 h 29 min
Bit rate : 29 b/s
Count of elements : 1462
Stream size : 32.8 KiB (0%)
Title : Full
Language : English
Default : No
Forced : No

Text #5
ID : 13
Format : UTF-8
Codec ID : S_TEXT/UTF8
Codec ID/Info : UTF-8 Plain Text
Duration : 2 h 29 min
Bit rate : 35 b/s
Count of elements : 1712
Stream size : 38.6 KiB (0%)
Title : SDH
Language : English
Default : No
Forced : No

Menu
00:00:00.000 : en:Chapter 01
00:05:12.353 : en:Chapter 02
00:12:47.016 : en:Chapter 03
00:13:18.881 : en:Chapter 04
00:18:57.386 : en:Chapter 05
00:23:41.837 : en:Chapter 06
00:24:55.827 : en:Chapter 07
00:26:04.354 : en:Chapter 08
00:27:32.984 : en:Chapter 09
00:35:45.643 : en:Chapter 10
00:36:41.240 : en:Chapter 11
00:40:41.605 : en:Chapter 12
00:42:01.101 : en:Chapter 13
00:43:11.338 : en:Chapter 14
00:46:15.856 : en:Chapter 15
00:51:27.417 : en:Chapter 16
00:54:57.794 : en:Chapter 17
00:56:14.788 : en:Chapter 18
00:58:30.924 : en:Chapter 19
01:00:26.914 : en:Chapter 20
01:02:43.551 : en:Chapter 21
01:06:10.007 : en:Chapter 22
01:12:23.047 : en:Chapter 23
01:17:22.387 : en:Chapter 24
01:20:36.289 : en:Chapter 25
01:24:56.966 : en:Chapter 26
01:28:41.524 : en:Chapter 27
01:30:51.946 : en:Chapter 28
01:33:02.118 : en:Chapter 29
01:35:12.790 : en:Chapter 30
01:38:32.448 : en:Chapter 31
01:39:42.643 : en:Chapter 32
01:41:00.387 : en:Chapter 33
01:45:03.463 : en:Chapter 34
01:47:13.593 : en:Chapter 35
01:49:05.247 : en:Chapter 36
01:50:02.971 : en:Chapter 37
01:52:59.189 : en:Chapter 38
01:53:51.241 : en:Chapter 39
01:57:14.902 : en:Chapter 40
02:05:38.531 : en:Chapter 41
02:12:07.002 : en:Chapter 42
02:15:25.826 : en:Chapter 43
02:18:32.470 : en:Chapter 44
02:20:07.357 : en:Chapter 45
02:22:26.955 : en:Chapter 46
02:26:11.179 : en:Chapter 47
02:30:54.420 : en:Chapter 48

pb.wtf



Скачать Хоббит: Битва пяти воинств через торрент https://a.radikal.ru/a30/2011/4b/d822681b6445.jpg Скачать, смотреть онлайн Хоббит: Битва пяти воинств бесплантно в хорошем качестве Описание: Когда отряд из тринадцати гномов нанимал хоббита Бильбо Бэгинса в качестве взломщика и четырнадцатого, «счастливого», участника ... 10 10 6
Info! Золотая раздача, скачанное не засчитывается.
Торрент: Зарегистрирован [2020-12-01 03:58] · скачан: 207 раз
Статус: √ проверено
Размер: 81.44 GB
Как cкачать? Как скачать Хоббит: Битва пяти воинств через торрент | UTorrent

28-11-2019 20:33  

Отключить вcю реклaмy на сайте

    Дорогой пользователь! Огромная просьба, поблагодарите релизера, оцените раздачу и оставьте свои комментарий, если Вы скачали Хоббит: Битва пяти воинств через торрент бесплатно!
    Комментировать посты могут только пользователи прошедшие не сложную регистрацию
    Показать сообщения:    

    Хоббит: Битва пяти воинств через торрент
    Скачать бесплатно Хоббит: Битва пяти воинств
    Хоббит: Битва пяти воинств скачать торрент
    Хоббит: Битва пяти воинств смотреть онлайн
    Cкачать фильм Хоббит: Битва пяти воинств бесплатно
    Хоббит: Битва пяти воинств скачать торрент в хорошем качестве
    Хоббит: Битва пяти воинств смотреть онлайн бесплатно в хорошем качестве


    Вы не можете начинать темы
    Вы не можете отвечать на сообщения
    Вы не можете редактировать свои сообщения
    Вы не можете удалять свои сообщения
    Вы не можете голосовать в опросах
    Вы не можете прикреплять файлы к сообщениям
    Вы можете скачивать файлы