Anonymous, доброй ночи, присоединяйтесь к нам в Telegram!, здесь всегда актуальный адрес сайта, оперативная поддержка и многое другое!

>

5.5

iTunes

7.4

iTunes

7.9

iTunes

1

7.7

1 сезон

6.8

iTunes

7.3

1 сезон

13

6.7

1 сезон

8.3

RePack

30

ULTIMATE

pack

9.9

Лицензия

ВАЖНО

ИГРА 18+

pack

7.3

RePack

MK11

7.7

RePack

jed

7.8

RePack

fifa19

8.5

RePack

RDR2

RePack

NEED FOR SPEED™ PAYBACK

4 сезон

9 сезон

Бесстыжие 9 сезон

Все сериалы

все сериалы на PB.wtf

RePack

FAR CRY 5

Anonymous, доброй ночи, мы катастрофически не успеваем собрать деньги на оплату серверов, помогите нам пожалуйста 5,10,15р., для нас важна любая помощь . В качестве благодарности мы отключим Вам всю рекламу на сайте (укажите свой ник в строку Ваше имя)!

×
  
Magnet ссылка

Капитан Марвел в 3D / Captain Marvel in 3D(Анна Боден, Райан Флек) [2019 г., фантастика, боевик, приключения, BDRip 720p / 60 FPS, Дубляж Лицензия] Анаглиф (Дюбуа) от R.G. HD-Films pb.wtf

Капитан Марвел в 3D через торрент pb.wtf

Размер: 4.32 GB | Добавлен: 10 мес. назад | Торрент скачан:1 раз
Смотреть онлайн Капитан Марвел в 3D | Скачать    Ребята, помогите собрать деньги на оплату серверов!!!

01-12-2020 13:26 Капитан Марвел в 3D Скачать торрент  

Капитан Марвел / Captain Marvel
Год выпуска: 2019
Страна: США
Жанр: фантастика, боевик, приключения
Продолжительность: 02:03:42
Перевод: Дубляж Лицензия
Субтитры: русские , украинские , английские

Режиссер: Анна Боден, Райан Флек

Бюджет: $175 000 000
Премьера в мире: 27 февраля 2019

rating

В ролях: Бри Ларсон, Сэмюэл Л. Джексон, Бен Мендельсон, Джуд Лоу, Аннетт Бенинг, Лашана Линч, Кларк Грегг, Рюн Темт, Джемма Чан, Альхенис Перес Сото, Джимон Хонсу, Ли Пейс, Чуку Моду, Мэттью Мехер, Акира Акбар, Марк Догерти, Стивен А. Чанг

Описание: После столкновения с враждующими инопланетными расами, пилот военно-воздушных сил Кэрол Дэнверс обретает суперсилу и становится неуязвимой. Героине предстоит совладать со своими новыми способностями, чтобы противостоять могущественному врагу.

Доп. информация: Формат 3D: Анаглиф (Дюбуа)



Качество: BDRip 720p / 60 FPS
Формат: MKV
Видео кодек: H.264
Аудио кодек: AC3
Видео: x264, 1280 x 536 ( 2,40:1 ), 4 620 kbps, 60,000 fps, ( 0.112 bpp)
Аудио#1: Русский / AC3 / 48 KHz / 5.1 ch / 384 Kbps (Дубляж - BD Eur)
Релиз от: Автор рипа: slaventi-69
Общее
Уникальный идентификатор : 14268860955303751947401560212638062103 (0xABC15291D62231E286B73AD1B84D617)
Полное имя : E:\Temp\Заказ\CaptainMarvel(2019)3D.(Anaglyph_Dubois).720p.(60 Fps).mkv
Формат : Matroska
Версия формата : Version 4
Размер файла : 4,32 Гбайт
Продолжительность : 2 ч. 3 м.
Общий поток : 5 007 Кбит/сек
Название фильма : Капитан Марвел / Captain Marvel (2019) in 3D (Anaglyph_Dubois) 720p (60 Fps)
Дата кодирования : UTC 2020-11-30 15:18:12
Программа кодирования : mkvmerge v35.0.0 ('All The Love In The World') 64-bit
Библиотека кодирования : libebml v1.3.9 + libmatroska v1.5.2

Видео
Идентификатор : 1
Формат : AVC
Формат/Информация : Advanced Video Codec
Профиль формата : High@L4.1
MultiView_Count : 2
MultiView_Layout : Anaglyph (cyan/red)
Настройки формата : CABAC / 9 Ref Frames
Параметр CABAC формата : Да
Параметр RefFrames формата : 9 кадров
Идентификатор кодека : V_MPEG4/ISO/AVC
Продолжительность : 2 ч. 3 м.
Битрейт : 4 620 Кбит/сек
Ширина : 1 280 пикселей
Высота : 536 пикселей
Соотношение сторон : 2,40:1
Режим частоты кадров : Постоянный
Частота кадров : 60,000 кадров/сек
Цветовое пространство : YUV
Субдискретизация насыщенности : 4:2:0
Битовая глубина : 8 бит
Тип развёртки : Прогрессивная
Бит/(Пиксели*Кадры) : 0.112
Размер потока : 3,99 Гбайт (92%)
Заголовок : slaventi-69 ( R.G. HD-Films | 60 fps )
Библиотека кодирования : x264 core 130 r2273 b3065e6
Настройки программы : cabac=1 / ref=9 / deblock=1:-1:-1 / analyse=0x3:0x133 / me=umh / subme=9 / psy=1 / psy_rd=1.00:0.00 / mixed_ref=1 / me_range=32 / chroma_me=1 / trellis=2 / 8x8dct=1 / cqm=0 / deadzone=21,11 / fast_pskip=1 / chroma_qp_offset=-2 / threads=10 / lookahead_threads=4 / sliced_threads=0 / nr=0 / decimate=1 / interlaced=0 / bluray_compat=0 / constrained_intra=0 / bframes=5 / b_pyramid=2 / b_adapt=2 / b_bias=0 / direct=2 / weightb=1 / open_gop=0 / weightp=2 / keyint=600 / keyint_min=23 / scenecut=40 / intra_refresh=0 / rc=crf / mbtree=0 / crf=16.0 / qcomp=0.60 / qpmin=0 / qpmax=69 / qpstep=4 / ip_ratio=1.40 / pb_ratio=1.30 / aq=1:1.00
Язык : English
Default : Да
Forced : Нет

Аудио
Идентификатор : 2
Формат : AC-3
Формат/Информация : Audio Coding 3
Коммерческое название : Dolby Digital
Идентификатор кодека : A_AC3
Продолжительность : 2 ч. 3 м.
Вид битрейта : Постоянный
Битрейт : 384 Кбит/сек
Каналы : 6 каналов
Channel layout : L R C LFE Ls Rs
Частота : 48,0 КГц
Частота кадров : 31,250 кадров/сек (1536 SPF)
Метод сжатия : С потерями
Размер потока : 339 Мбайт (8%)
Заголовок : Дубляж (BD Eur)
Язык : Russian
Service kind : Complete Main
Default : Да
Forced : Нет

Текст #1
Идентификатор : 3
Формат : UTF-8
Идентификатор кодека : S_TEXT/UTF8
Идентификатор кодека/Информация : UTF-8 Plain Text
Продолжительность : 2 ч. 2 м.
Битрейт : 1 бит/сек
Count of elements : 31
Размер потока : 1,49 Кбайт (0%)
Заголовок : Форсированные (расширенные)
Язык : Russian
Default : Да
Forced : Нет

Текст #2
Идентификатор : 4
Формат : UTF-8
Идентификатор кодека : S_TEXT/UTF8
Идентификатор кодека/Информация : UTF-8 Plain Text
Продолжительность : 2 ч. 2 м.
Битрейт : 65 бит/сек
Count of elements : 1314
Размер потока : 58,8 Кбайт (0%)
Заголовок : Полные
Язык : Russian
Default : Нет
Forced : Нет

Текст #3
Идентификатор : 5
Формат : UTF-8
Идентификатор кодека : S_TEXT/UTF8
Идентификатор кодека/Информация : UTF-8 Plain Text
Продолжительность : 2 ч. 2 м.
Битрейт : 77 бит/сек
Count of elements : 1637
Размер потока : 69,2 Кбайт (0%)
Заголовок : SDH
Язык : Russian
Default : Нет
Forced : Нет

Текст #4
Идентификатор : 6
Формат : UTF-8
Идентификатор кодека : S_TEXT/UTF8
Идентификатор кодека/Информация : UTF-8 Plain Text
Продолжительность : 2 ч. 3 м.
Битрейт : 1 бит/сек
Count of elements : 32
Размер потока : 1,53 Кбайт (0%)
Заголовок : Форсированные [от Ash61]
Язык : Ukrainian
Default : Нет
Forced : Нет

Текст #5
Идентификатор : 7
Формат : UTF-8
Идентификатор кодека : S_TEXT/UTF8
Идентификатор кодека/Информация : UTF-8 Plain Text
Продолжительность : 1 ч. 53 м.
Битрейт : 47 бит/сек
Count of elements : 1422
Размер потока : 39,6 Кбайт (0%)
Заголовок : Full
Язык : English
Default : Нет
Forced : Нет

Текст #6
Идентификатор : 8
Формат : UTF-8
Идентификатор кодека : S_TEXT/UTF8
Идентификатор кодека/Информация : UTF-8 Plain Text
Продолжительность : 2 ч. 2 м.
Битрейт : 50 бит/сек
Count of elements : 1668
Размер потока : 45,1 Кбайт (0%)
Заголовок : SDH
Язык : English
Default : Нет
Forced : Нет

Меню
00:00:00.000 : :1. "Снова те сны?" / "Dreams Again"
00:06:52.120 : :2. Найти и спасти / Search and Rescue
00:14:07.889 : :3. Манипуляции с памятью / Memory Manipulation
00:23:18.272 : :4. Планета C-53 / Planet C-53
00:29:38.026 : :5. Скрулл в подземке / Subway Skrull
00:35:07.772 : :6. Поиск ответов / Searching for Answers
00:44:08.437 : :7. Проект "ПЕГАС" / Project P.E.G.A.S.U.S.
00:50:43.499 : :8. Прибытие подкрепления / Backup Arrives
00:56:18.625 : :9. Снова вместе / Reunited
01:03:02.821 : :10. Разоблачение / Revelation
01:11:17.398 : :11. "Ты - Кэрол Дэнверс" / "You are Carol Danvers"
01:17:49.164 : :12. Выжившие скруллы / Skrull Survivors
01:27:03.051 : :13. "Взять и освободиться" / "Finally Set Free"
01:33:22.430 : :14. Битва звёздных сил / Starforce Battle
01:40:51.796 : :15. Нападение Ронана / Ronan's Offensive
01:46:25.087 : :16. Взять на себя инициативу / Taking the Initiative
01:52:49.888 : :17. Финальные титры / End Credits

Просьба к переливающим на другие сайты, в оформлении указывайте пожалуйста авторство группы R.G. HD-Filmspb.wtf



Скачать Капитан Марвел в 3D через торрент https://d.radikal.ru/d42/1906/64/013b5385629f.png Скачать, смотреть онлайн Капитан Марвел в 3D бесплантно в хорошем качестве Описание: После столкновения с враждующими инопланетными расами, пилот военно-воздушных сил Кэрол Дэнверс обретает суперсилу и становится ... 5 10 1
Торрент: Зарегистрирован [2020-12-01 13:26] · скачан: 1 раз
Статус: √ проверено
Размер: 4.32 GB
Как cкачать? Как скачать Капитан Марвел в 3D через торрент | UTorrent

% Раздел Тема Автор DL S | L
3D Фильмы [ 8.17 GB ] Капитан Марвел в 3D / Captain Marvel in 3D [2019 BDRip 1080p ] Анаглиф от R.G. HD-Films slaventi-69 Скачать
1 | 0

28-11-2019 20:33  

Отключить всю рекламу на сайте

01-12-2020 17:38 Капитан Марвел в 3D Скачать торрент  

"Капитанша" правильнее будетpb.wtf



    Дорогой пользователь! Огромная просьба, поблагодарите релизера, оцените раздачу и оставьте свои комментарий, если Вы скачали Капитан Марвел в 3D через торрент бесплатно!
    Комментировать посты могут только пользователи прошедшие не сложную регистрацию
    Показать сообщения:    

    Капитан Марвел в 3D через торрент
    Скачать бесплатно Капитан Марвел в 3D
    Капитан Марвел в 3D скачать торрент
    Капитан Марвел в 3D смотреть онлайн
    Cкачать фильм Капитан Марвел в 3D бесплатно
    Капитан Марвел в 3D скачать торрент в хорошем качестве
    Капитан Марвел в 3D смотреть онлайн бесплатно в хорошем качестве


    Вы не можете начинать темы
    Вы не можете отвечать на сообщения
    Вы не можете редактировать свои сообщения
    Вы не можете удалять свои сообщения
    Вы не можете голосовать в опросах
    Вы не можете прикреплять файлы к сообщениям
    Вы можете скачивать файлы