Anonymous, добрый день, присоединяйтесь к нам в Telegram!, здесь всегда актуальный адрес сайта, оперативная поддержка и многое другое!

>

5.6

iTunes

7.4

iTunes

5.7

MVO

1

7.7

1 сезон

6.8

iTunes

7.3

1 сезон

13

6.7

1 сезон

8.3

RePack

30

ULTIMATE

pack

9.9

Лицензия

ВАЖНО

ИГРА 18+

pack

7.3

RePack

MK11

7.7

RePack

jed

7.8

RePack

fifa19

8.5

RePack

RDR2

RePack

NEED FOR SPEED™ PAYBACK

4 сезон

9 сезон

Бесстыжие 9 сезон

Все сериалы

все сериалы на PB.wtf

RePack

FAR CRY 5

Anonymous, добрый день, мы катастрофически не успеваем собрать деньги на оплату серверов, помогите нам пожалуйста 5,10,15р., для нас важна любая помощь . В качестве благодарности мы отключим Вам всю рекламу на сайте (укажите свой ник в строку Ваше имя)!

×
  
Magnet ссылка

Судная ночь: Квадрология / The Purge: Quadrology (Джеймс ДеМонако, Герард МакМюррей) [2013 - 2018, ужасы, триллер, BDRip - HEVC 1080p 10 bit 60 FPS, DUB] pb.wtf

Судная ночь: Квадрология через торрент pb.wtf

Раздают: 2 [ 0 KB/s ]
Размер: 14.93 GB | Добавлен: 5 мес. 9 д. назад | Торрент скачан:11 раз
Смотреть онлайн Судная ночь: Квадрология | Скачать    Ребята, помогите собрать деньги на оплату серверов!!!

02-12-2020 18:07 Судная ночь: Квадрология Скачать торрент  



«Судная ночь» (англ. The Purge — «Чистка») — психологический триллер-антиутопия режиссёра Джеймса Демонако. Мировая премьера состоялась в США 2 мая 2013 года на кинофестивале Stanley, российская премьера — 12 июня 2013 года.

Фильм получил смешанные отзывы зрителей и критиков, но тем не менее блестяще показал себя в прокате, собрав 89,3 миллионов долларов при бюджете в 3 миллиона.


Судная ночь - The Purge«Одну ночь в году дозволено все. Главное - дожить до рассвета»

Год выпуска: 2013
Страна: США, Франция
Жанр: триллер, ужасы

Продолжительность: 01:25:18
Перевод: Дубляж
Субтитры: нет

Режиссер: Джеймс ДеМонако

В ролях: Итэн Хоук, Лина Хиди, Макс Буркхолдер, Аделаида Кейн, Эдвин Ходж, Рис Уэйкфилд, Тони Оллер, Ария Барейкис, Том Йи, Крис Малки

Описание:
Мир будущего - мир без преступности, безработицы и войн. И все это благодаря одной ночи в году, когда можно отправить на тот свет любого - злобного босса, шумных соседей, надоевших родственников. В Судную ночь дозволено все - главное дожить до рассвета.

Мировая премьера: 2 мая 2013


Качество: BDRip 1080p by DD2D3
Формат: MKV
Видео кодек: V_MPEGH/ISO/HEVC
Аудио кодек: DTS
Видео: V_MPEGH/ISO/HEVC; 1920x800 (2.40:1); 3703 Kbps; 59,940 fps; 0,040 bpp
Аудио: русский; DTS; 768 Kbps; CBR; 6 ch; 24 bit
Навигация по главам: есть



Общее
Уникальный идентификатор : 205946933684359531831060179049427528811 (0x9AEFEFC88A2E4947B4EA3497DA886C6B)
Полное имя : D:\The Purge Quadrilogy (2013 - 2018) BDRip - HEVC 1080p 10 bit 60 FPS\The Purge (2013) BDRip - HEVC 1080p 10 bit 60 FPS.mkv
Формат : Matroska
Версия формата : Version 4
Размер файла : 2,67 Гбайт
Продолжительность : 1 ч. 25 м.
Общий поток : 4 479 Кбит/сек
Название фильма : Rip by from DD2D3
Дата кодирования : UTC 2021-05-06 15:29:00
Программа кодирования : mkvmerge v10.0.0 ('To Drown In You') 32bit
Библиотека кодирования : libebml v1.3.4 + libmatroska v1.4.5
Attachments : poster

Видео
Идентификатор : 1
Формат : HEVC
Формат/Информация : High Efficiency Video Coding
Профиль формата : Main 10@L4.1@Main
Идентификатор кодека : V_MPEGH/ISO/HEVC
Продолжительность : 1 ч. 25 м.
Битрейт : 3 704 Кбит/сек
Ширина : 1 920 пикселей
Высота : 800 пикселей
Соотношение сторон : 2,40:1
Режим частоты кадров : Постоянный
Частота кадров : 59,940 (60000/1001) кадров/сек
Цветовое пространство : YUV
Субдискретизация насыщенности : 4:2:0
Битовая глубина : 10 бит
Бит/(Пиксели*Кадры) : 0.040
Размер потока : 2,21 Гбайт (83%)
Библиотека кодирования : x265 2.3+33-0b7d54dbb71a87a0:[Windows][MSVC 1800][64 bit] 10bit: KG7x [x265.ru]
Настройки программы : cpuid=1173503 / frame-threads=2 / numa-pools=4 / wpp / no-pmode / no-pme / no-psnr / no-ssim / log-level=2 / input-csp=1 / input-res=1920x800 / interlace=0 / total-frames=306776 / level-idc=41 / high-tier=1 / uhd-bd=0 / ref=3 / no-allow-non-conformance / no-repeat-headers / annexb / no-aud / no-hrd / info / hash=0 / no-temporal-layers / open-gop / min-keyint=25 / keyint=250 / bframes=4 / b-adapt=2 / b-pyramid / bframe-bias=0 / rc-lookahead=20 / lookahead-slices=5 / scenecut=40 / no-intra-refresh / ctu=64 / min-cu-size=8 / no-rect / no-amp / max-tu-size=32 / tu-inter-depth=1 / tu-intra-depth=1 / limit-tu=0 / rdoq-level=0 / dynamic-rd=0.00 / no-ssim-rd / signhide / no-tskip / nr-intra=0 / nr-inter=0 / no-constrained-intra / strong-intra-smoothing / max-merge=2 / limit-refs=3 / no-limit-modes / me=1 / subme=2 / merange=57 / temporal-mvp / weightp / no-weightb / no-analyze-src-pics / deblock=0:0 / sao / no-sao-non-deblock / rd=3 / no-early-skip / rskip / no-fast-intra / no-tskip-fast / no-cu-lossless / no-b-intra / rdpenalty=0 / psy-rd=2.00 / psy-rdoq=0.00 / no-rd-refine / analysis-mode=0 / no-lossless / cbqpoffs=0 / crqpoffs=0 / rc=abr / bitrate=3700 / qcomp=0.60 / qpstep=4 / stats-write=0 / stats-read=2 / cplxblur=20.0 / qblur=0.5 / ipratio=1.40 / pbratio=1.30 / aq-mode=1 / aq-strength=1.00 / cutree / zone-count=0 / no-strict-cbr / qg-size=32 / no-rc-grain / qpmax=69 / qpmin=0 / sar=1 / overscan=0 / videoformat=5 / range=0 / colorprim=2 / transfer=2 / colormatrix=2 / chromaloc=0 / display-window=0 / max-cll=0,0 / min-luma=0 / max-luma=1023 / log2-max-poc-lsb=8 / vui-timing-info / vui-hrd-info / slices=1 / opt-qp-pps / opt-ref-list-length-pps / no-multi-pass-opt-rps / scenecut-bias=0.05 / no-opt-cu-delta-qp / no-aq-motion / no-hdr / no-hdr-opt / refine-level=5 / no-limit-sao
Default : Да
Forced : Нет

Аудио
Идентификатор : 2
Формат : DTS
Формат/Информация : Digital Theater Systems
Идентификатор кодека : A_DTS
Продолжительность : 1 ч. 25 м.
Вид битрейта : Постоянный
Битрейт : 768 Кбит/сек
Каналы : 6 каналов
Channel layout : C L R Ls Rs LFE
Частота : 48,0 КГц
Частота кадров : 93,750 кадра/сек (512 SPF)
Битовая глубина : 24 бит
Метод сжатия : С потерями
Размер потока : 468 Мбайт (17%)
Заголовок : Русский DTS 755 kbps - Дубляж
Язык : Russian
Default : Да
Forced : Нет

Текст
Идентификатор : 3
Формат : UTF-8
Идентификатор кодека : S_TEXT/UTF8
Идентификатор кодека/Информация : UTF-8 Plain Text
Продолжительность : 1 ч. 19 м.
Битрейт : 81 бит/сек
Count of elements : 940
Размер потока : 47,9 Кбайт (0%)
Заголовок : Русские - Full
Язык : Russian
Default : Нет
Forced : Нет

Меню
00:00:00.000 : en:00:00:00.000
00:04:30.562 : en:00:04:30.562
00:07:24.402 : en:00:07:24.402
00:13:48.619 : en:00:13:48.619
00:18:24.103 : en:00:18:24.103
00:23:11.473 : en:00:23:11.473
00:28:13.859 : en:00:28:13.859
00:31:33.266 : en:00:31:33.266
00:35:42.182 : en:00:35:42.182
00:39:28.741 : en:00:39:28.741
00:44:37.508 : en:00:44:37.508
00:47:53.120 : en:00:47:53.120
00:50:33.447 : en:00:50:33.447
00:56:02.234 : en:00:56:02.234
01:00:20.283 : en:01:00:20.283
01:03:35.729 : en:01:03:35.729
01:07:09.776 : en:01:07:09.776
01:11:09.891 : en:01:11:09.891
01:16:01.807 : en:01:16:01.807
01:19:27.096 : en:01:19:27.096


скриншот   скриншот   скриншот   скриншот  


Судная ночь 2 - The Purge: Anarchy «Добро пожаловать в идеальное будущее, где одну ночь в году все преступления легальны»

Год выпуска: 2014
Страна: США, Франция
Жанр: триллер, криминал, боевик

Продолжительность: 01:43:34
Перевод: Дубляж
Субтитры: русские

Режиссер: Джеймс ДеМонако

В ролях: Фрэнк Грилло, Кармен Эджого, Зак Гилфорд, Киле Санчес, Майкл Кеннет Уильямс, Зои Борд, Жустина Мачадо, Джон Бизли, Джек Конли, Ноэль Гульеми, Кастуло Герра, Эдвин Ходж

Описание:
Добро пожаловать в идеальный мир будущего — мир без преступности и войн. И только один раз в году роскошная спокойная жизнь сменяется анархией. Этой ночью все преступления законны. Поспешите домой — закат близок….

Мировая премьера: 17 июля 2014


Качество: BDRip 1080p by DD2D3
Формат: MKV
Видео кодек: V_MPEGH/ISO/HEVC
Аудио кодек: DTS
Видео: V_MPEGH/ISO/HEVC; 1920x800 (2.40:1);5001 Kbps; 59,940 fps; 0,054 bpp
Аудио: русский; DTS; 768 Kbps; CBR; 6 ch; 24 bit
Навигация по главам: есть



General
Unique ID : 249475714370475723608733641696616055596 (0xBBAF465DE73A472DB1F6E2234597032C)
Complete name : D:\The Purge Quadrilogy (2013 - 2018) BDRip - HEVC 1080p 10 bit 60 FPS\The Purge Anarchy (2014) BDRip - HEVC 1080p 10 bit 60 FPS.mkv
Format : Matroska
Format version : Version 4
File size : 4.18 GiB
Duration : 1 h 43 min
Overall bit rate : 5 778 kb/s
Movie name : Rip by from DD2D3
Encoded date : UTC 2020-11-30 15:20:18
Writing application : mkvmerge v10.0.0 ('To Drown In You') 32bit
Writing library : libebml v1.3.4 + libmatroska v1.4.5
Attachments : poster

Video
ID : 1
Format : HEVC
Format/Info : High Efficiency Video Coding
Format profile : Main 10@L4.1@Main
Codec ID : V_MPEGH/ISO/HEVC
Duration : 1 h 43 min
Bit rate : 5 002 kb/s
Width : 1 920 pixels
Height : 800 pixels
Display aspect ratio : 2.40:1
Frame rate mode : Constant
Frame rate : 59.940 (60000/1001) FPS
Color space : YUV
Chroma subsampling : 4:2:0
Bit depth : 10 bits
Bits/(Pixel*Frame) : 0.054
Stream size : 3.62 GiB (87%)
Writing library : x265 2.3+33-0b7d54dbb71a87a0:[Windows][MSVC 1800][64 bit] 10bit: KG7x [x265.ru]
Encoding settings : cpuid=1173503 / frame-threads=2 / numa-pools=4 / wpp / no-pmode / no-pme / no-psnr / no-ssim / log-level=2 / input-csp=1 / input-res=1920x800 / interlace=0 / total-frames=372508 / level-idc=41 / high-tier=1 / uhd-bd=0 / ref=3 / no-allow-non-conformance / no-repeat-headers / annexb / no-aud / no-hrd / info / hash=0 / no-temporal-layers / open-gop / min-keyint=25 / keyint=250 / bframes=4 / b-adapt=2 / b-pyramid / bframe-bias=0 / rc-lookahead=20 / lookahead-slices=5 / scenecut=40 / no-intra-refresh / ctu=64 / min-cu-size=8 / no-rect / no-amp / max-tu-size=32 / tu-inter-depth=1 / tu-intra-depth=1 / limit-tu=0 / rdoq-level=0 / dynamic-rd=0.00 / no-ssim-rd / signhide / no-tskip / nr-intra=0 / nr-inter=0 / no-constrained-intra / strong-intra-smoothing / max-merge=2 / limit-refs=3 / no-limit-modes / me=1 / subme=2 / merange=57 / temporal-mvp / weightp / no-weightb / no-analyze-src-pics / deblock=0:0 / sao / no-sao-non-deblock / rd=3 / no-early-skip / rskip / no-fast-intra / no-tskip-fast / no-cu-lossless / no-b-intra / rdpenalty=0 / psy-rd=2.00 / psy-rdoq=0.00 / no-rd-refine / analysis-mode=0 / no-lossless / cbqpoffs=0 / crqpoffs=0 / rc=abr / bitrate=5000 / qcomp=0.60 / qpstep=4 / stats-write=0 / stats-read=2 / cplxblur=20.0 / qblur=0.5 / ipratio=1.40 / pbratio=1.30 / aq-mode=1 / aq-strength=1.00 / cutree / zone-count=0 / no-strict-cbr / qg-size=32 / no-rc-grain / qpmax=69 / qpmin=0 / sar=1 / overscan=0 / videoformat=5 / range=0 / colorprim=2 / transfer=2 / colormatrix=2 / chromaloc=0 / display-window=0 / max-cll=0,0 / min-luma=0 / max-luma=1023 / log2-max-poc-lsb=8 / vui-timing-info / vui-hrd-info / slices=1 / opt-qp-pps / opt-ref-list-length-pps / no-multi-pass-opt-rps / scenecut-bias=0.05 / no-opt-cu-delta-qp / no-aq-motion / no-hdr / no-hdr-opt / refine-level=5 / no-limit-sao
Default : Yes
Forced : No

Audio
ID : 2
Format : DTS
Format/Info : Digital Theater Systems
Codec ID : A_DTS
Duration : 1 h 43 min
Bit rate mode : Constant
Bit rate : 768 kb/s
Channel(s) : 6 channels
Channel layout : C L R Ls Rs LFE
Sampling rate : 48.0 kHz
Frame rate : 93.750 FPS (512 SPF)
Bit depth : 24 bits
Compression mode : Lossy
Stream size : 569 MiB (13%)
Title : DTS 5.1 @ 768 kbps - Dub, BD EUR
Language : Russian
Default : No
Forced : No

Text
ID : 3
Format : UTF-8
Codec ID : S_TEXT/UTF8
Codec ID/Info : UTF-8 Plain Text
Duration : 1 h 42 min
Bit rate : 77 b/s
Count of elements : 1153
Stream size : 58.1 KiB (0%)
Title : Full
Language : Russian
Default : No
Forced : No

Menu
00:00:00.000 : :Chapter 01
00:05:14.521 : :Chapter 02
00:09:49.838 : :Chapter 03
00:14:37.293 : :Chapter 04
00:18:32.944 : :Chapter 05
00:23:17.229 : :Chapter 06
00:31:21.796 : :Chapter 07
00:36:28.935 : :Chapter 08
00:41:18.559 : :Chapter 09
00:47:13.831 : :Chapter 10
00:51:38.761 : :Chapter 11
00:57:27.943 : :Chapter 12
01:01:48.662 : :Chapter 13
01:06:49.213 : :Chapter 14
01:10:11.916 : :Chapter 15
01:15:45.747 : :Chapter 16
01:21:14.493 : :Chapter 17
01:26:41.154 : :Chapter 18
01:31:17.970 : :Chapter 19
01:36:47.051 : :Chapter 20
01:43:34.498 : :Chapter 21


скриншот   скриншот   скриншот   скриншот  


Судная ночь 3 - The Purge: Election Year«Один раз в году все преступления законны»

Год выпуска: 2016
Страна: США, Япония
Жанр: ужасы, боевик, триллер

Продолжительность: 01:48:47
Перевод: Дубляж
Субтитры: нет

Режиссер: Джеймс ДеМонако

В ролях: Фрэнк Грилло, Элизабет Митчелл, Майкелти Уильямсон, Джозеф Джулиан Сория, Бетти Гэбриел, Терри Серпико, Эдвин Ходж, Кайл Сикор, Бэрри Нолан, Лиза Колон-Зайас

Описание:
Американский сенатор Чарли Роан в своей молодости пережила худшую судную ночь в своей жизни. Тогда жестокий убийца беспощадно уничтожил всех членов ее семьи, почему-то оставив в живых только испуганную до полусмерти девушку-подростка. Поэтому сейчас Чарли баллотируется на должность президента страны и собирается сразу же отменить кровавую традицию – судную ночь. Но именно за это намерение женщину и преследуют те новые отцы-основатели, которые и сами любят «очищать» свою душу, убивая десятки несчастных под громкие аплодисменты своих друзей. И поэтому в следующую ночь вседозволенности Чарли Роан вдруг окажется на улице вместе со своим верным телохранителем. Ее будут преследовать наемники, уличные банды и иностранные туристы, приехавшие в Америку, чтобы удовлетворить свою жажду крови. И когда женщина все же сумеет оторваться и укрыться в укромном месте, то в игру вступят те, которые не привыкли упускать своих жертв. И тогда Чарли осознает весь ужас варварской традиции, которая не знает жалости к бедным и малообеспеченным жителям страны. Ведь все они имеют очень мало шансов дожить до семи утра, как, впрочем, и сама Чарли Роан, окруженная сумасшедшими психами и убийцами.

Мировая премьера: 29 июня 2016


Качество: BDRip 1080p by DD2D3
Формат: MKV
Видео кодек: V_MPEGH/ISO/HEVC
Аудио кодек: AC3
Видео: V_MPEGH/ISO/HEVC;1920x800 (2.40:1); 5002 Kbps; 59,940 fps; 0,054 bpp
Аудио: русский; AC3; 448 Kbps; CBR; 6 ch
Навигация по главам: есть



General
Unique ID : 175038287265703057624473763037647786926 (0x83AF25DBDA25142E9A6DA4929B14D3AE)
Complete name : D:\The Purge Quadrilogy (2013 - 2018) BDRip - HEVC 1080p 10 bit 60 FPS\The Purge Election Year (2016) BDRip - HEVC 1080p 10 bit 60 FPS.mkv
Format : Matroska
Format version : Version 4
File size : 4.15 GiB
Duration : 1 h 48 min
Overall bit rate : 5 457 kb/s
Movie name : Rip by from DD2D3
Encoded date : UTC 2020-12-01 16:09:19
Writing application : mkvmerge v10.0.0 ('To Drown In You') 32bit
Writing library : libebml v1.3.4 + libmatroska v1.4.5
Attachments : poster

Video
ID : 1
Format : HEVC
Format/Info : High Efficiency Video Coding
Format profile : Main 10@L4.1@Main
Codec ID : V_MPEGH/ISO/HEVC
Duration : 1 h 48 min
Bit rate : 5 002 kb/s
Width : 1 920 pixels
Height : 800 pixels
Display aspect ratio : 2.40:1
Frame rate mode : Constant
Frame rate : 59.940 (60000/1001) FPS
Color space : YUV
Chroma subsampling : 4:2:0
Bit depth : 10 bits
Bits/(Pixel*Frame) : 0.054
Stream size : 3.80 GiB (92%)
Writing library : x265 2.3+33-0b7d54dbb71a87a0:[Windows][MSVC 1800][64 bit] 10bit: KG7x [x265.ru]
Encoding settings : cpuid=1173503 / frame-threads=2 / numa-pools=4 / wpp / no-pmode / no-pme / no-psnr / no-ssim / log-level=2 / input-csp=1 / input-res=1920x800 / interlace=0 / total-frames=391261 / level-idc=41 / high-tier=1 / uhd-bd=0 / ref=3 / no-allow-non-conformance / no-repeat-headers / annexb / no-aud / no-hrd / info / hash=0 / no-temporal-layers / open-gop / min-keyint=25 / keyint=250 / bframes=4 / b-adapt=2 / b-pyramid / bframe-bias=0 / rc-lookahead=20 / lookahead-slices=5 / scenecut=40 / no-intra-refresh / ctu=64 / min-cu-size=8 / no-rect / no-amp / max-tu-size=32 / tu-inter-depth=1 / tu-intra-depth=1 / limit-tu=0 / rdoq-level=0 / dynamic-rd=0.00 / no-ssim-rd / signhide / no-tskip / nr-intra=0 / nr-inter=0 / no-constrained-intra / strong-intra-smoothing / max-merge=2 / limit-refs=3 / no-limit-modes / me=1 / subme=2 / merange=57 / temporal-mvp / weightp / no-weightb / no-analyze-src-pics / deblock=0:0 / sao / no-sao-non-deblock / rd=3 / no-early-skip / rskip / no-fast-intra / no-tskip-fast / no-cu-lossless / no-b-intra / rdpenalty=0 / psy-rd=2.00 / psy-rdoq=0.00 / no-rd-refine / analysis-mode=0 / no-lossless / cbqpoffs=0 / crqpoffs=0 / rc=abr / bitrate=5000 / qcomp=0.60 / qpstep=4 / stats-write=0 / stats-read=2 / cplxblur=20.0 / qblur=0.5 / ipratio=1.40 / pbratio=1.30 / aq-mode=1 / aq-strength=1.00 / cutree / zone-count=0 / no-strict-cbr / qg-size=32 / no-rc-grain / qpmax=69 / qpmin=0 / sar=1 / overscan=0 / videoformat=5 / range=0 / colorprim=2 / transfer=2 / colormatrix=2 / chromaloc=0 / display-window=0 / max-cll=0,0 / min-luma=0 / max-luma=1023 / log2-max-poc-lsb=8 / vui-timing-info / vui-hrd-info / slices=1 / opt-qp-pps / opt-ref-list-length-pps / no-multi-pass-opt-rps / scenecut-bias=0.05 / no-opt-cu-delta-qp / no-aq-motion / no-hdr / no-hdr-opt / refine-level=5 / no-limit-sao
Default : Yes
Forced : No

Audio
ID : 2
Format : AC-3
Format/Info : Audio Coding 3
Commercial name : Dolby Digital
Codec ID : A_AC3
Duration : 1 h 48 min
Bit rate mode : Constant
Bit rate : 448 kb/s
Channel(s) : 6 channels
Channel layout : L R C LFE Ls Rs
Sampling rate : 48.0 kHz
Frame rate : 31.250 FPS (1536 SPF)
Compression mode : Lossy
Stream size : 349 MiB (8%)
Title : Дубляж
Language : Russian
Service kind : Complete Main
Default : Yes
Forced : No

Menu
00:00:00.000 : en:00:00:00.000
00:05:47.347 : en:00:05:47.347
00:09:21.978 : en:00:09:21.978
00:17:15.618 : en:00:17:15.618
00:22:49.493 : en:00:22:49.493
00:28:43.180 : en:00:28:43.180
00:35:58.490 : en:00:35:58.490
00:41:50.508 : en:00:41:50.508
00:47:03.112 : en:00:47:03.112
00:53:30.374 : en:00:53:30.374
00:57:31.531 : en:00:57:31.531
01:02:20.820 : en:01:02:20.820
01:10:43.614 : en:01:10:43.614
01:17:32.731 : en:01:17:32.731
01:22:16.765 : en:01:22:16.765
01:27:03.093 : en:01:27:03.093
01:32:12.819 : en:01:32:12.819
01:36:17.480 : en:01:36:17.480
01:41:35.715 : en:01:41:35.715
01:43:36.752 : en:01:43:36.752


скриншот   скриншот   скриншот  


Судная ночь. Начало - The First Purge«Нет правил. Нет законов. Нет пощады»

Год выпуска: 2018
Страна: США, Япония
Жанр: ужасы, боевик, триллер

Продолжительность: 01:37:25
Перевод: Дубляж
Субтитры: русский

Режиссер: Герард МакМюррей

В ролях: И`лан Ноэль, Лекс Скотт Дэвис, Джойван Вейд, Магга, Патрик Дарро, Мариса Томей, Лорен Луна Велес, Кристен Солис, Ротими Пол, Мо

Описание:
Хотели бы вы жить в идеальном мире, где нет преступности, безработицы и войн? Единственная плата за такое счастливое будущее - это одна ночь абсолютного беззакония в году. Ночь, когда дозволено всё. Согласны поучаствовать в таком социальном эксперименте?

Мировая премьера: 29 июня 2016


Качество: BDRip 1080p by DD2D3
Формат: MKV
Видео кодек: V_MPEGH/ISO/HEVC
Аудио кодек: DTS
Видео: V_MPEGH/ISO/HEVC; 1920x804 (2.40:1); 5002 Kbps; 59,940 fps; 0,054 bpp
Аудио: русский; DTS; 768 Kbps; CBR; 6 ch; 24 bit
Навигация по главам: есть



General
Unique ID : 174001073851057517816450878779624613195 (0x82E7634A0A8A5D1D83796032F129654B)
Complete name : D:\The Purge Quadrilogy (2013 - 2018) BDRip - HEVC 1080p 10 bit 60 FPS\The First Purge (2018) BDRip - HEVC 1080p 10 bit 60 FPS.mkv
Format : Matroska
Format version : Version 4
File size : 3.93 GiB
Duration : 1 h 37 min
Overall bit rate : 5 778 kb/s
Movie name : Rip by from DD2D3
Encoded date : UTC 2020-12-02 15:30:23
Writing application : mkvmerge v10.0.0 ('To Drown In You') 32bit
Writing library : libebml v1.3.4 + libmatroska v1.4.5
Attachments : poster

Video
ID : 1
Format : HEVC
Format/Info : High Efficiency Video Coding
Format profile : Main 10@L4.1@Main
Codec ID : V_MPEGH/ISO/HEVC
Duration : 1 h 37 min
Bit rate : 5 002 kb/s
Width : 1 920 pixels
Height : 804 pixels
Display aspect ratio : 2.40:1
Frame rate mode : Constant
Frame rate : 59.940 (60000/1001) FPS
Color space : YUV
Chroma subsampling : 4:2:0
Bit depth : 10 bits
Bits/(Pixel*Frame) : 0.054
Stream size : 3.40 GiB (87%)
Writing library : x265 2.3+33-0b7d54dbb71a87a0:[Windows][MSVC 1800][64 bit] 10bit: KG7x [x265.ru]
Encoding settings : cpuid=1173503 / frame-threads=2 / numa-pools=4 / wpp / no-pmode / no-pme / no-psnr / no-ssim / log-level=2 / input-csp=1 / input-res=1920x804 / interlace=0 / total-frames=350371 / level-idc=41 / high-tier=1 / uhd-bd=0 / ref=3 / no-allow-non-conformance / no-repeat-headers / annexb / no-aud / no-hrd / info / hash=0 / no-temporal-layers / open-gop / min-keyint=25 / keyint=250 / bframes=4 / b-adapt=2 / b-pyramid / bframe-bias=0 / rc-lookahead=20 / lookahead-slices=5 / scenecut=40 / no-intra-refresh / ctu=64 / min-cu-size=8 / no-rect / no-amp / max-tu-size=32 / tu-inter-depth=1 / tu-intra-depth=1 / limit-tu=0 / rdoq-level=0 / dynamic-rd=0.00 / no-ssim-rd / signhide / no-tskip / nr-intra=0 / nr-inter=0 / no-constrained-intra / strong-intra-smoothing / max-merge=2 / limit-refs=3 / no-limit-modes / me=1 / subme=2 / merange=57 / temporal-mvp / weightp / no-weightb / no-analyze-src-pics / deblock=0:0 / sao / no-sao-non-deblock / rd=3 / no-early-skip / rskip / no-fast-intra / no-tskip-fast / no-cu-lossless / no-b-intra / rdpenalty=0 / psy-rd=2.00 / psy-rdoq=0.00 / no-rd-refine / analysis-mode=0 / no-lossless / cbqpoffs=0 / crqpoffs=0 / rc=abr / bitrate=5000 / qcomp=0.60 / qpstep=4 / stats-write=0 / stats-read=2 / cplxblur=20.0 / qblur=0.5 / ipratio=1.40 / pbratio=1.30 / aq-mode=1 / aq-strength=1.00 / cutree / zone-count=0 / no-strict-cbr / qg-size=32 / no-rc-grain / qpmax=69 / qpmin=0 / sar=1 / overscan=0 / videoformat=5 / range=0 / colorprim=2 / transfer=2 / colormatrix=2 / chromaloc=0 / display-window=0 / max-cll=0,0 / min-luma=0 / max-luma=1023 / log2-max-poc-lsb=8 / vui-timing-info / vui-hrd-info / slices=1 / opt-qp-pps / opt-ref-list-length-pps / no-multi-pass-opt-rps / scenecut-bias=0.05 / no-opt-cu-delta-qp / no-aq-motion / no-hdr / no-hdr-opt / refine-level=5 / no-limit-sao
Default : Yes
Forced : No

Audio
ID : 2
Format : DTS
Format/Info : Digital Theater Systems
Codec ID : A_DTS
Duration : 1 h 37 min
Bit rate mode : Constant
Bit rate : 768 kb/s
Channel(s) : 6 channels
Channel layout : C L R Ls Rs LFE
Sampling rate : 48.0 kHz
Frame rate : 93.750 FPS (512 SPF)
Bit depth : 24 bits
Compression mode : Lossy
Stream size : 535 MiB (13%)
Title : Dub [License]
Language : Russian
Default : Yes
Forced : Yes

Text
ID : 3
Format : UTF-8
Codec ID : S_TEXT/UTF8
Codec ID/Info : UTF-8 Plain Text
Duration : 1 h 36 min
Bit rate : 74 b/s
Count of elements : 1243
Stream size : 52.9 KiB (0%)
Title : Full
Language : Russian
Default : No
Forced : No

Menu
00:00:00.000 : en:Chapter 1
00:06:25.635 : en:Chapter 2
00:11:59.802 : en:Chapter 3
00:16:18.769 : en:Chapter 4
00:21:18.110 : en:Chapter 5
00:25:56.388 : en:Chapter 6
00:30:54.144 : en:Chapter 7
00:35:31.212 : en:Chapter 8
00:38:41.110 : en:Chapter 9
00:43:02.455 : en:Chapter 10
00:48:34.411 : en:Chapter 11
00:53:35.087 : en:Chapter 12
00:55:59.565 : en:Chapter 13
00:59:13.049 : en:Chapter 14
01:05:25.713 : en:Chapter 15
01:09:31.793 : en:Chapter 16
01:13:23.733 : en:Chapter 17
01:19:47.533 : en:Chapter 18
01:24:50.043 : en:Chapter 19
01:29:54.931 : en:Chapter 20


скриншот   скриншот   скриншот   скриншот  


pb.wtf



Скачать Судная ночь: Квадрология через торрент https://funkyimg.com/i/395xs.jpg Скачать, смотреть онлайн Судная ночь: Квадрология бесплантно в хорошем качестве Описание: Мир будущего - мир без преступности, безработицы и войн. И все это благодаря одной ночи в году, когда можно отправить на тот свет ... 8.7 10 7
Торрент: Зарегистрирован [2021-05-06 16:05] · скачан: 11 раз
Статус: √ проверено
Размер: 14.93 GB
Как cкачать? Как скачать Судная ночь: Квадрология через торрент | UTorrent



Последний раз редактировалось: dd2d3 (2021-05-06 16:05), всего редактировалось 1 раз

28-11-2019 20:33  

Отключить всю рекламу на сайте

02-12-2020 20:56 Судная ночь: Квадрология Скачать торрент  

класс,ещё бы полную коллекцию Пилыpb.wtf



25-12-2020 14:34 Судная ночь: Квадрология Скачать торрент  

они могли засеять торрент
загрузка не начинается :(pb.wtf



    Дорогой пользователь! Огромная просьба, поблагодарите релизера, оцените раздачу и оставьте свои комментарий, если Вы скачали Судная ночь: Квадрология через торрент бесплатно!
    Комментировать посты могут только пользователи прошедшие не сложную регистрацию
    Показать сообщения:    

    Судная ночь: Квадрология через торрент
    Скачать бесплатно Судная ночь: Квадрология
    Судная ночь: Квадрология скачать торрент
    Судная ночь: Квадрология смотреть онлайн
    Cкачать фильм Судная ночь: Квадрология бесплатно
    Судная ночь: Квадрология скачать торрент в хорошем качестве
    Судная ночь: Квадрология смотреть онлайн бесплатно в хорошем качестве


    Вы не можете начинать темы
    Вы не можете отвечать на сообщения
    Вы не можете редактировать свои сообщения
    Вы не можете удалять свои сообщения
    Вы не можете голосовать в опросах
    Вы не можете прикреплять файлы к сообщениям
    Вы можете скачивать файлы