2 сезон

iTunes

MVO

1

2 сезон

iTunes

iTunes

1 сезон

RePack

30

Новинка

ВАЖНО

ИГРА 18+

pack

RePack

MK11
pack

Легкие деньги

RePack

jed

RePack

fifa19

RePack

RDR2

RePack

NEED FOR SPEED™ PAYBACK

4 сезон

9 сезон

Бесстыжие 9 сезон

Все сериалы

все сериалы на PB.wtf

RePack

FAR CRY 5

Anonymous, доброй ночи, мы не успеваем собрать деньги на оплату серверов за декабрь и январь, помогите нам пожалуйста в это трудное время. В качестве благодарности мы отключим Вам всю рекламу на сайте (укажите свой ник в строку Ваше имя)!

×
  
Magnet ссылка

Кот под прикрытием / Spycies (Гийом Ивернель, Чжан Чжии) [2019, мультфильм, приключения, BDRip 720p] DUB [iTunes] pb.wtf

Кот под прикрытием через торрент pb.wtf

Раздают: 6 [ 116 KB/s ]
Размер: 3.56 GB | Добавлен: 1 мес. 16 д. назад | Торрент скачан:227 раз
Скачать  

03-12-2020 05:13 Кот под прикрытием Скачать торрент  

Кот под прикрытием | Spycies
Год выпуска: 2019
Страна: Китай, Франция
Студия: Lux Populi VFX, Lux Populi Production, Particular Crowd
Жанр: мультфильм, приключения
Продолжительность: 01:39:34
Перевод: Дублированный | iTunes
Субтитры: Немецкие

Режиссер: Гийом Ивернель, Чжан Чжии

rating

В ролях: Кирк Торнтон, Дино Андраде, Салли Саффиоти, Карен Страссман, Джемисон Прайс, Лорен Александр, Деби Дерриберри, Барбара Гудсон, Дэвид Лодж, Дави Мурье

Описание: Два полицейских спецагента должны раскрыть дело о похищении секретного минерала. Проблема в том, что каждый из них привык работать исключительно своими, отличными от напарника, методами. Да и сами они, мягко говоря, совсем не похожи друг на друга.

Качество: BDRip 720p
Формат: MKV

Видео: MPEG-4 AVC, 3557 kbps avg, 1280x544, x264, 24.000 fps
Аудио#1: 48 kHz, AC3 Dolby Digital, 3/2 (L, C, R, l, r) + LFE ch, ~384 kbps | русский
Аудио#2: 48 kHz, Digital Theater Systems, 3/2 (L, C, R, l, r) + LFE ch, ~1509 kbps | английский
скриншот  скриншот  скриншот  скриншот  

Complete name : Kot.pod.prikryitiem.2019.720p.BluRay.ELEKTRI4KA.UNIONGANG.mkv
Format : Matroska
Format version : Version 4 / Version 2
File size : 3.56 GiB
Duration : 1 h 39 min
Overall bit rate : 5 119 kb/s
Movie name : .ELEKTRI4KA.UNIONGANG.
Encoded date : UTC 2020-12-02 20:06:44
Writing application : mkvmerge v8.3.0 ('Over the Horizon') 64bit
Writing library : libebml v1.3.1 + libmatroska v1.4.2

Video
ID : 1
Format : AVC
Format/Info : Advanced Video Codec
Format profile : High@L4.1
Format settings, CABAC : Yes
Format settings, Reference frames : 5 frames
Codec ID : V_MPEG4/ISO/AVC
Duration : 1 h 39 min
Bit rate : 3 557 kb/s
Width : 1 280 pixels
Height : 544 pixels
Display aspect ratio : 2.35:1
Frame rate mode : Constant
Frame rate : 24.000 FPS
Color space : YUV
Chroma subsampling : 4:2:0
Bit depth : 8 bits
Scan type : Progressive
Bits/(Pixel*Frame) : 0.213
Stream size : 2.47 GiB (69%)
Writing library : x264 core 159 r2991 1771b55
Encoding settings : cabac=1 / ref=5 / deblock=1:-3:-3 / analyse=0x3:0x113 / me=umh / subme=8 / psy=1 / psy_rd=1.00:0.00 / mixed_ref=1 / me_range=16 / chroma_me=1 / trellis=1 / 8x8dct=1 / cqm=0 / deadzone=21, 11 / fast_pskip=1 / chroma_qp_offset=-2 / threads=17 / lookahead_threads=2 / sliced_threads=0 / nr=0 / decimate=1 / interlaced=0 / bluray_compat=0 / constrained_intra=0 / bframes=3 / b_pyramid=2 / b_adapt=1 / b_bias=0 / direct=3 / weightb=1 / open_gop=0 / weightp=2 / keyint=250 / keyint_min=24 / scenecut=40 / intra_refresh=0 / rc_lookahead=50 / rc=2pass / mbtree=1 / bitrate=3557 / ratetol=1.0 / qcomp=0.60 / qpmin=0 / qpmax=69 / qpstep=4 / cplxblur=20.0 / qblur=0.5 / ip_ratio=1.40 / aq=1:1.00
Language : English
Default : Yes
Forced : No

Audio #1
ID : 2
Format : AC-3
Format/Info : Audio Coding 3
Mode extension : CM (complete main)
Format settings, Endianness : Big
Codec ID : A_AC3
Duration : 1 h 39 min
Bit rate mode : Constant
Bit rate : 384 kb/s
Channel(s) : 6 channels
Channel positions : Front: L C R, Side: L R, LFE
Sampling rate : 48.0 kHz
Frame rate : 31.250 FPS (1536 spf)
Bit depth : 16 bits
Compression mode : Lossy
Stream size : 272 MiB (7%)
Title : DUB (iTunes)
Language : Russian
Default : Yes
Forced : Yes

Audio #2
ID : 3
Format : DTS
Format/Info : Digital Theater Systems
Mode : 16
Format settings, Endianness : Big
Codec ID : A_DTS
Duration : 1 h 39 min
Bit rate mode : Constant
Bit rate : 1 152 kb/s
Channel(s) : 6 channels
Channel positions : Front: L C R, Side: L R, LFE
Sampling rate : 48.0 kHz
Frame rate : 93.750 FPS (512 spf)
Bit depth : 16 bits
Compression mode : Lossy
Stream size : 820 MiB (23%)
Title : DTS 5.1
Language : English
Default : No
Forced : No

Text #1
ID : 4
Format : PGS
Muxing mode : zlib
Codec ID : S_HDMV/PGS
Codec ID/Info : Picture based subtitle format used on BDs/HD-DVDs
Duration : 1 h 33 min
Bit rate : 28.1 kb/s
Count of elements : 1793
Stream size : 18.8 MiB (1%)
Language : German
Default : Yes
Forced : No

Text #2
ID : 5
Format : PGS
Muxing mode : zlib
Codec ID : S_HDMV/PGS
Codec ID/Info : Picture based subtitle format used on BDs/HD-DVDs
Duration : 1 h 23 min
Bit rate : 218 b/s
Count of elements : 24
Stream size : 134 KiB (0%)
Language : German
Default : No
Forced : No

Menu
00:00:00.000 : en:Chapter 01
00:06:09.917 : en:Chapter 02
00:14:24.583 : en:Chapter 03
00:24:00.542 : en:Chapter 04
00:29:23.250 : en:Chapter 05
00:42:27.083 : en:Chapter 06
00:50:02.625 : en:Chapter 07
00:58:34.000 : en:Chapter 08
01:09:53.917 : en:Chapter 09
01:14:37.417 : en:Chapter 10
01:16:35.500 : en:Chapter 11
01:33:10.833 : en:Chapter 12
01:39:08.000 : en:Chapter 13

pb.wtf



Скачать Кот под прикрытием через торрент https://i4.imageban.ru/out/2020/12/02/57641c9cb7056ee8430577ebd355bbc8.png Скачать фильм Кот под прикрытием через торрент бесплантно в хорошем качестве Описание: Два полицейских спецагента должны раскрыть дело о похищении секретного минерала. Проблема в том, что каждый из них привык ... 10 10 7
Торрент: Зарегистрирован [2020-12-03 05:19] · скачан: 227 раз
Статус: √ проверено
Размер: 3.56 GB
Как cкачать? Как скачать Кот под прикрытием через торрент | UTorrent

% Раздел Тема Автор DL S | L
Иностранные мультфильмы [ 1.42 GB ] Кот под прикрытием / Spycies [2019 мультфильм BDRip] - Twi7ter Скачать
13 | 2
Иностранные мультфильмы [ 749 MB ] Кот под прикрытием / Spycies [2019 мультфильм BDRip] bober100 Скачать
2 | 0
Иностранные мультфильмы [ 1.42 GB ] Кот под прикрытием / Spycies [2019 мультфильм BDRip] bober100 Скачать
4 | 0
Зарубежные Мультфильмы (BDRip 1080p, 720p, Blu-ray, BD-Remux) [ 8.5 GB ] Кот под прикрытием / Spycies [2019 мультфильм BDRip 1080p] bober100 Скачать
2 | 0

28-11-2019 20:33  

Отключить всю рекламу на сайте

    Дорогой пользователь! Огромная просьба, поблагодарите релизера, оцените раздачу и оставьте свои комментарий, если Вы скачали Кот под прикрытием через торрент бесплатно! Внесите свою лепту в развитие PiratBit!
    Комментировать посты могут только пользователи прошедшие не сложную регистрацию
    Показать сообщения:    

    Кот под прикрытием через торрент
    Скачать бесплатно Кот под прикрытием
    Кот под прикрытием скачать торрент
    Кот под прикрытием смотреть онлайн
    Cкачать фильм Кот под прикрытием бесплатно
    Кот под прикрытием скачать торрент в хорошем качестве
    Кот под прикрытием смотреть онлайн бесплатно в хорошем качестве


    Вы не можете начинать темы
    Вы не можете отвечать на сообщения
    Вы не можете редактировать свои сообщения
    Вы не можете удалять свои сообщения
    Вы не можете голосовать в опросах
    Вы не можете прикреплять файлы к сообщениям
    Вы можете скачивать файлы